6.9/10
1.330
8.0/10
1

Alt-torrent Películas con audio latino para ver y compartir

Colette Hughes, abogada de los derechos de los pacientes, va a defender a nueva cliente, Eleanor Riese, una paciente de la unidad psiquiátrica de un hospital de San Francisco. Hughes no se imagina que, además de emprender una batalla legal para mejorar el tratamiento de los enfermos mentales en los hospitales, transformará su vida.

Ttulo original:
55 Steps
Ao:
2017
Duracin:
115 min
Pas:
Germany, Belgium
Director:
Bille August
Escritor:
Mark Bruce Rosin
Reparto:
Hilary Swank, Helena Bonham Carter, Jeffrey Tambor, Jonathan Kerrigan
Productora:
Elsani Film,Potemkino Port,MMC Movies,Mass Hysteria Entertainment,Aloe Entertainment
Gnero:
Drama
General
Unique ID                                : 65887097436775094889138539732357736488 (0x319164B538C4A4812FF13944DE79E828)
Complete name                            : 55 Steps (2018) WEBDL 1080p LAT - FllorTV.mkv
Format                                   : Matroska
Format version                           : Version 4
File size                                : 4.13 GiB
Duration                                 : 1 h 54 min
Overall bit rate                         : 5 178 kb/s
Movie name                               : www.alt-torrent.com
Encoded date                             : UTC 2019-09-08 13:14:07
Writing application                      : mkvmerge v27.0.0 ('Metropolis') 64-bit
Writing library                          : libebml v1.3.6 + libmatroska v1.4.9

Video
ID                                       : 1
Format                                   : AVC
Format/Info                              : Advanced Video Codec
Format profile                           : [email protected]
Format settings                          : CABAC / 5 Ref Frames
Format settings, CABAC                   : Yes
Format settings, ReFrames                : 5 frames
Codec ID                                 : V_MPEG4/ISO/AVC
Duration                                 : 1 h 54 min
Bit rate                                 : 4 535 kb/s
Width                                    : 1 916 pixels
Height                                   : 802 pixels
Display aspect ratio                     : 2.40:1
Frame rate mode                          : Constant
Frame rate                               : 23.976 FPS
Color space                              : YUV
Chroma subsampling                       : 4:2:0
Bit depth                                : 8 bits
Scan type                                : Progressive
Bits/(Pixel*Frame)                       : 0.123
Stream size                              : 3.61 GiB (88%)
Title                                    : www.alt-torrent.com
Language                                 : English
Default                                  : Yes
Forced                                   : No
Color range                              : Limited
Color primaries                          : BT.709
Transfer characteristics                 : BT.709
Matrix coefficients                      : BT.709

Audio #1
ID                                       : 2
Format                                   : AC-3
Format/Info                              : Audio Coding 3
Commercial name                          : Dolby Digital
Codec ID                                 : A_AC3
Duration                                 : 1 h 54 min
Bit rate mode                            : Constant
Bit rate                                 : 256 kb/s
Channel(s)                               : 2 channels
Channel layout                           : L R
Sampling rate                            : 48.0 kHz
Frame rate                               : 31.250 FPS (1536 SPF)
Bit depth                                : 16 bits
Compression mode                         : Lossy
Stream size                              : 209 MiB (5%)
Title                                    : www.alt-torrent.com
Language                                 : Spanish
Service kind                             : Complete Main
Default                                  : Yes
Forced                                   : No

Audio #2
ID                                       : 3
Format                                   : AC-3
Format/Info                              : Audio Coding 3
Commercial name                          : Dolby Digital
Codec ID                                 : A_AC3
Duration                                 : 1 h 54 min
Bit rate mode                            : Constant
Bit rate                                 : 384 kb/s
Channel(s)                               : 6 channels
Channel layout                           : L R C LFE Ls Rs
Sampling rate                            : 48.0 kHz
Frame rate                               : 31.250 FPS (1536 SPF)
Bit depth                                : 16 bits
Compression mode                         : Lossy
Stream size                              : 313 MiB (7%)
Title                                    : www.alt-torrent.com
Language                                 : English
Service kind                             : Complete Main
Default                                  : No
Forced                                   : No

Text
ID                                       : 4
Format                                   : UTF-8
Codec ID                                 : S_TEXT/UTF8
Codec ID/Info                            : UTF-8 Plain Text
Duration                                 : 1 h 53 min
Bit rate                                 : 71 b/s
Count of elements                        : 1537
Stream size                              : 59.5 KiB (0%)
Title                                    : www.alt-torrent.com
Language                                 : Spanish
Default                                  : Yes
Forced                                   : No


BitRate : 5 178 kb/s
Audio Latino : AC3 2.0
Audio Inglés : AC3 2.0

* Chrome esta marcando los .torrent como archivos peligrosos,
Descarguenlos con confianza, son los mismos torrent de siempre.

 AMBOS AUDIOS FINALES
LATINO AC3 2.0 - INGLES AC3 5.1
+ SUBTITULO SRT LATINO