7.4/10
3.402
9.1/10
8

Alt-torrent Películas con audio latino para ver y compartir

Narra la historia de Bailey, un perro leal que encuentra el significado de su propia existencia a través de la vida de los humanos a los que les enseña a reír y amar.

Título original:
A Dog's Journey
Año:
2019
Duración:
109 min
País:
China, India, Hong Kong, USA
Director:
Gail Mancuso
Escritor:
W. Bruce Cameron (book), W. Bruce Cameron (screenplay), Maya Forbes (screenplay), Cathryn Michon (screenplay), Wallace Wolodarsky (screenplay)
Reparto:
Josh Gad, Dennis Quaid, Kathryn Prescott, Marg Helgenberger
Productora:
Walden Media,Alibaba Pictures Group,Amblin Entertainment,Universal Pictures
Género:
Familia,Drama
General
Unique ID                                : 260232404495403102239633970286476166603 (0xC3C6F022D96ECF95EF363203E0AC85CB)
Complete name                            : A Dogs Journey (2019) WEBDL 1080p LAT - FllorTV.mkv
Format                                   : Matroska
Format version                           : Version 4
File size                                : 3.83 GiB
Duration                                 : 1 h 48 min
Overall bit rate                         : 5 043 kb/s
Movie name                               : FllorTV
Encoded date                             : UTC 2019-08-07 12:59:12
Writing application                      : mkvmerge v27.0.0 ('Metropolis') 64-bit
Writing library                          : libebml v1.3.6 + libmatroska v1.4.9

Video
ID                                       : 1
Format                                   : AVC
Format/Info                              : Advanced Video Codec
Format profile                           : [email protected]
Format settings                          : CABAC / 5 Ref Frames
Format settings, CABAC                   : Yes
Format settings, ReFrames                : 5 frames
Codec ID                                 : V_MPEG4/ISO/AVC
Duration                                 : 1 h 48 min
Bit rate                                 : 4 531 kb/s
Width                                    : 1 920 pixels
Height                                   : 802 pixels
Display aspect ratio                     : 2.40:1
Frame rate mode                          : Constant
Frame rate                               : 23.976 FPS
Color space                              : YUV
Chroma subsampling                       : 4:2:0
Bit depth                                : 8 bits
Scan type                                : Progressive
Bits/(Pixel*Frame)                       : 0.123
Stream size                              : 3.44 GiB (90%)
Title                                    : www.alt-torrent.com
Language                                 : English
Default                                  : Yes
Forced                                   : No
Color range                              : Limited
Color primaries                          : BT.709
Transfer characteristics                 : BT.709
Matrix coefficients                      : BT.709

Audio #1
ID                                       : 2
Format                                   : AAC LC
Format/Info                              : Advanced Audio Codec Low Complexity
Codec ID                                 : A_AAC-2
Duration                                 : 1 h 48 min
Bit rate                                 : 126 kb/s
Channel(s)                               : 2 channels
Channel layout                           : L R
Sampling rate                            : 48.0 kHz
Frame rate                               : 46.875 FPS (1024 SPF)
Compression mode                         : Lossy
Stream size                              : 97.8 MiB (2%)
Title                                    : www.alt-torrent.com
Language                                 : Spanish
Default                                  : Yes
Forced                                   : No

Audio #2
ID                                       : 3
Format                                   : AC-3
Format/Info                              : Audio Coding 3
Commercial name                          : Dolby Digital
Codec ID                                 : A_AC3
Duration                                 : 1 h 48 min
Bit rate mode                            : Constant
Bit rate                                 : 384 kb/s
Channel(s)                               : 6 channels
Channel layout                           : L R C LFE Ls Rs
Sampling rate                            : 48.0 kHz
Frame rate                               : 31.250 FPS (1536 SPF)
Bit depth                                : 16 bits
Compression mode                         : Lossy
Stream size                              : 298 MiB (8%)
Title                                    : www.alt-torrent.com
Language                                 : English
Service kind                             : Complete Main
Default                                  : No
Forced                                   : No

Text #1
ID                                       : 4
Format                                   : UTF-8
Codec ID                                 : S_TEXT/UTF8
Codec ID/Info                            : UTF-8 Plain Text
Duration                                 : 1 h 20 min
Bit rate                                 : 0 b/s
Count of elements                        : 4
Stream size                              : 177 Bytes (0%)
Title                                    : www.alt-torrent.com
Language                                 : Spanish
Default                                  : Yes
Forced                                   : No

Text #2
ID                                       : 5
Format                                   : UTF-8
Codec ID                                 : S_TEXT/UTF8
Codec ID/Info                            : UTF-8 Plain Text
Duration                                 : 1 h 47 min
Bit rate                                 : 66 b/s
Count of elements                        : 1840
Stream size                              : 52.3 KiB (0%)
Title                                    : www.alt-torrent.com
Language                                 : Spanish
Default                                  : No
Forced                                   : No


BitRate : 5 043 kb/s
Audio Latino : AAC 2.0
Audio Inglés : AAC 2.0

* Chrome esta marcando los .torrent como archivos peligrosos,
Descarguenlos con confianza, son los mismos torrent de siempre.

 AMBOS AUDIOS FINALES
LATINO AAC 2.0 - INGLES AC3 5.1
+ SUBTITULO SRT LATINO