6.9/10
14.942
8.0/10
1

Alt-torrent Películas con audio latino para ver y compartir

Basada en la experiencia vivida por el británico Billy Moore, que sobrevivió a una dura experiencia en una cárcel en Tailandia convirtiéndose dentro en boxeador.

Título original:
A Prayer Before Dawn
Año:
2017
Duración:
116 min
País:
UK, France, China, Cambodia, USA, Germany
Director:
Jean-Stéphane Sauvaire
Escritor:
Billy Moore (based on the memoir by), Jonathan Hirschbein (screenplay by), Nick Saltrese (screenplay by)
Reparto:
Joe Cole, Vithaya Pansringarm, Pornchanok Mabklang, Panya Yimmumphai
Productora:
Meridian Entertainment,Hurricane Films,Senorita Films,Indochina Productions,Symbolic Exchange
Género:
Drama,Acción,Crimen
Format                                   : Matroska
Format version                           : Version 4
File size                                : 3.34 GiB
Duration                                 : 1 h 56 min
Overall bit rate                         : 4 101 kb/s
Movie name                               : www.alt-torrent.com
Encoded date                             : UTC 2019-07-07 19:43:14
Writing application                      : mkvmerge v27.0.0 ('Metropolis') 64-bit
Writing library                          : libebml v1.3.6 + libmatroska v1.4.9

Video
ID                                       : 1
Format                                   : AVC
Format/Info                              : Advanced Video Codec
Format profile                           : [email protected]
Format settings                          : CABAC / 5 Ref Frames
Format settings, CABAC                   : Yes
Format settings, ReFrames                : 5 frames
Codec ID                                 : V_MPEG4/ISO/AVC
Duration                                 : 1 h 56 min
Bit rate                                 : 3 500 kb/s
Width                                    : 1 920 pixels
Height                                   : 804 pixels
Display aspect ratio                     : 2.40:1
Frame rate mode                          : Constant
Frame rate                               : 23.976 (24000/1001) FPS
Color space                              : YUV
Chroma subsampling                       : 4:2:0
Bit depth                                : 8 bits
Scan type                                : Progressive
Bits/(Pixel*Frame)                       : 0.095
Stream size                              : 2.77 GiB (83%)
Title                                    : www.alt-torrent.com
Writing library                          : x264 core 157 r2935 545de2f
Encoding settings                        : cabac=1 / ref=5 / deblock=1:0:0 / analyse=0x1:0x111 / me=hex / subme=8 / psy=1 / psy_rd=1.00:0.00 / mixed_ref=1 / me_range=16 / chroma_me=1 / trellis=2 / 8x8dct=0 / cqm=0 / deadzone=21,11 / fast_pskip=1 / chroma_qp_offset=-2 / threads=25 / lookahead_threads=4 / sliced_threads=0 / nr=0 / decimate=1 / interlaced=0 / bluray_compat=0 / constrained_intra=0 / bframes=3 / b_pyramid=2 / b_adapt=1 / b_bias=0 / direct=3 / weightb=1 / open_gop=0 / weightp=2 / keyint=240 / keyint_min=24 / scenecut=40 / intra_refresh=0 / rc_lookahead=50 / rc=abr / mbtree=1 / bitrate=3500 / ratetol=1.0 / qcomp=0.60 / qpmin=0 / qpmax=69 / qpstep=4 / vbv_maxrate=20000 / vbv_bufsize=25000 / nal_hrd=none / filler=0 / ip_ratio=1.40 / aq=1:1.00
Default                                  : Yes
Forced                                   : No
Color range                              : Limited
Color primaries                          : BT.709
Transfer characteristics                 : BT.709
Matrix coefficients                      : BT.709

Audio #1
ID                                       : 2
Format                                   : AC-3
Format/Info                              : Audio Coding 3
Commercial name                          : Dolby Digital
Codec ID                                 : A_AC3
Duration                                 : 1 h 56 min
Bit rate mode                            : Constant
Bit rate                                 : 256 kb/s
Channel(s)                               : 2 channels
Channel layout                           : L R
Sampling rate                            : 48.0 kHz
Frame rate                               : 31.250 FPS (1536 SPF)
Bit depth                                : 16 bits
Compression mode                         : Lossy
Delay relative to video                  : -5 ms
Stream size                              : 214 MiB (6%)
Title                                    : www.alt-torrent.com
Language                                 : Spanish
Service kind                             : Complete Main
Default                                  : Yes
Forced                                   : No

Audio #2
ID                                       : 3
Format                                   : AC-3
Format/Info                              : Audio Coding 3
Commercial name                          : Dolby Digital
Codec ID                                 : A_AC3
Duration                                 : 1 h 56 min
Bit rate mode                            : Constant
Bit rate                                 : 448 kb/s
Channel(s)                               : 6 channels
Channel layout                           : L R C LFE Ls Rs
Sampling rate                            : 48.0 kHz
Frame rate                               : 31.250 FPS (1536 SPF)
Bit depth                                : 16 bits
Compression mode                         : Lossy
Delay relative to video                  : -5 ms
Stream size                              : 374 MiB (11%)
Title                                    : www.alt-torrent.com
Language                                 : English
Service kind                             : Complete Main
Default                                  : No
Forced                                   : No

Text #1
ID                                       : 4
Format                                   : UTF-8
Codec ID                                 : S_TEXT/UTF8
Codec ID/Info                            : UTF-8 Plain Text
Duration                                 : 1 h 52 min
Bit rate                                 : 0 b/s
Count of elements                        : 10
Stream size                              : 481 Bytes (0%)
Title                                    : www.alt-torrent.com
Language                                 : Spanish
Default                                  : Yes
Forced                                   : Yes

Text #2
ID                                       : 5
Format                                   : UTF-8
Codec ID                                 : S_TEXT/UTF8
Codec ID/Info                            : UTF-8 Plain Text
Duration                                 : 1 h 52 min
Bit rate                                 : 11 b/s
Count of elements                        : 366
Stream size                              : 9.17 KiB (0%)
Title                                    : www.alt-torrent.com
Language                                 : Spanish
Default                                  : No
Forced                                   : No

BitRate : 4 101 kb/s
Audio Latino : AC3 2.0
Audio Inglés : AC3 2.0

* Chrome esta marcando los .torrent como archivos peligrosos,
Descarguenlos con confianza, son los mismos torrent de siempre.

 AMBOS AUDIOS FINALES
LATINO AC3 2.0 - INGLES AC3 5.1
+ SUBTITULO SRT LATINO