7.8/10
222.511
8.0/10
7

Alt-torrent Películas con audio latino para ver y compartir

Jackson Maine es una estrella de la música que se enamora de Ally (Lady Gaga), una artista que lucha por salir adelante. Justo cuando Ally está a punto de abandonar su sueño de convertirse en cantante, Jack decide ayudarla en su carrera hacia la fama. El camino será más duro de lo que imaginan ...

Título original:
A Star Is Born
Año:
2018
Duración:
136 min
País:
USA
Director:
Bradley Cooper
Escritor:
Eric Roth (screenplay by), Bradley Cooper (screenplay by), Will Fetters (screenplay by), Moss Hart (based on the 1954 screenplay by), John Gregory Dunne (based on the 1976 screenplay by), Joan Didion (based on the 1976 screenplay by), Frank Pierson (based on the 1976 screenplay by), William A. Wellman (based on a story by), Robert Carson (based on a story by)
Reparto:
Lady Gaga, Bradley Cooper, Sam Elliott, Andrew Dice Clay
Productora:
Thunder Road Pictures,22 & Green,Gerber Pictures,Joint Effort,Malpaso Productions,Warner Bros. Pictures
Género:
Drama,Música,Romance
A Star Is Born (2018) FullHD 1080p LAT - FllorTV

Format                      : Matroska
Format version              : Version 4 / Version 2
File size                   : 6.22 GiB
Duration                    : 2 h 15 min
Overall bit rate            : 6 562 kb/s
Movie name                  : www.alt-torrent.com / - By FllorTV
Encoded date                : UTC 2019-02-08 20:41:19
Writing application         : mkvmerge v30.1.0 ('Forever And More') 64-bit
Writing library             : libebml v1.3.6 + libmatroska v1.4.9

Video
ID                          : 1
Format                      : AVC
Format/Info                 : Advanced Video Codec
Format profile              : [email protected]
Format settings             : CABAC / 4 Ref Frames
Format settings, CABAC      : Yes
Format settings, RefFrames  : 4 frames
Codec ID                    : V_MPEG4/ISO/AVC
Duration                    : 2 h 15 min
Bit rate                    : 5 792 kb/s
Width                       : 1 920 pixels
Height                      : 1 080 pixels
Display aspect ratio        : 16:9
Frame rate mode             : Constant
Frame rate                  : 23.976 (24000/1001) FPS
Color space                 : YUV
Chroma subsampling          : 4:2:0
Bit depth                   : 8 bits
Scan type                   : Progressive
Bits/(Pixel*Frame)          : 0.117
Stream size                 : 5.49 GiB (88%)
Title                       : www.alt-torrent.com / - By FllorTV
Writing library             : x264 core 157 r2935 545de2f
Encoding settings           : cabac=1 / ref=4 / deblock=1:0:0 / analyse=0x3:0x133 / me=tesa / subme=11 / psy=1 / psy_rd=1.00:0.00 / mixed_ref=1 / me_range=24 / chroma_me=1 / trellis=2 / 8x8dct=1 / cqm=0 / deadzone=21,11 / fast_pskip=0 / chroma_qp_offset=-2 / threads=34 / lookahead_threads=8 / sliced_threads=0 / nr=0 / decimate=1 / interlaced=0 / bluray_compat=0 / constrained_intra=0 / bframes=16 / b_pyramid=2 / b_adapt=2 / b_bias=0 / direct=3 / weightb=1 / open_gop=0 / weightp=2 / keyint=240 / keyint_min=24 / scenecut=40 / intra_refresh=0 / rc_lookahead=60 / rc=crf / mbtree=1 / crf=20.0 / qcomp=0.60 / qpmin=0 / qpmax=69 / qpstep=4 / vbv_maxrate=62500 / vbv_bufsize=78125 / crf_max=0.0 / nal_hrd=none / filler=0 / ip_ratio=1.40 / aq=1:1.00
Default                     : Yes
Forced                      : No
Color range                 : Limited
Color primaries             : BT.709
Transfer characteristics    : BT.709
Matrix coefficients         : BT.709

Audio #1
ID                          : 2
Format                      : AC-3
Format/Info                 : Audio Coding 3
Format settings, Endianness : Big
Codec ID                    : A_AC3
Duration                    : 2 h 15 min
Bit rate mode               : Constant
Bit rate                    : 384 kb/s
Channel(s)                  : 6 channels
Channel positions           : Front: L C R, Side: L R, LFE
Sampling rate               : 48.0 kHz
Frame rate                  : 31.250 FPS (1536 SPF)
Bit depth                   : 16 bits
Compression mode            : Lossy
Stream size                 : 373 MiB (6%)
Title                       : Latino
Language                    : Spanish
Service kind                : Complete Main
Default                     : Yes
Forced                      : No

Audio #2
ID                          : 3
Format                      : AC-3
Format/Info                 : Audio Coding 3
Format settings, Endianness : Big
Codec ID                    : A_AC3
Duration                    : 2 h 15 min
Bit rate mode               : Constant
Bit rate                    : 384 kb/s
Channel(s)                  : 6 channels
Channel positions           : Front: L C R, Side: L R, LFE
Sampling rate               : 48.0 kHz
Frame rate                  : 31.250 FPS (1536 SPF)
Bit depth                   : 16 bits
Compression mode            : Lossy
Stream size                 : 373 MiB (6%)
Title                       : Ingles
Language                    : English
Service kind                : Complete Main
Default                     : No
Forced                      : No

Text #1
ID                          : 4
Format                      : UTF-8
Codec ID                    : S_TEXT/UTF8
Codec ID/Info               : UTF-8 Plain Text
Duration                    : 2 h 15 min
Bit rate                    : 10 b/s
Count of elements           : 290
Stream size                 : 10.5 KiB (0%)
Title                       : Forzadoos
Language                    : Spanish
Default                     : Yes
Forced                      : Yes

Text #2
ID                          : 5
Format                      : UTF-8
Codec ID                    : S_TEXT/UTF8
Codec ID/Info               : UTF-8 Plain Text
Duration                    : 2 h 14 min
Bit rate                    : 61 b/s
Count of elements           : 1856
Stream size                 : 61.0 KiB (0%)
Title                       : Completos
Language                    : Spanish
Default                     : No
Forced                      : No

Menu
00:00:00.000                : :Chapter 1
00:08:03.108                : :Chapter 2
00:15:25.675                : :Chapter 3
00:20:26.100                : :Chapter 4
00:29:59.840                : :Chapter 5
00:36:07.582                : :Chapter 6
00:38:33.520                : :Chapter 7
00:49:23.669                : :Chapter 8
00:54:12.291                : :Chapter 9
00:56:41.398                : :Chapter 10
01:07:03.645                : :Chapter 11
01:15:37.533                : :Chapter 12
01:21:02.066                : :Chapter 13
01:24:21.932                : :Chapter 14
01:34:38.298                : :Chapter 15
01:43:44.802                : :Chapter 16
01:50:53.147                : :Chapter 17
02:01:20.273                : :Chapter 18
02:05:20.430                : :Chapter 19


BitRate : 6 562 kb/s
Audio Latino : AC3 5.1
Audio Inglés : AC3 5.1

* Chrome esta marcando los .torrent como archivos peligrosos,
Descarguenlos con confianza, son los mismos torrent de siempre.



Calidad Versión Atributo Tamaño link
WEBDL 1080p 5.11 GB a-star-is-born-1080p-2018-webdl-lat.html
WEBDL 1080p 3.16 GB a-star-is-born-720p-2018-webdl-lat.html
WEBDL 1080p [60fps] 8.82 GB a-star-is-born-60fps-2018-webdl-lat.html