5.4/10
2.450
1.0/10
1

Alt-torrent Películas con audio latino para ver y compartir

Una mujer ayuda a buscar venganza a gente que ha sufrido abusos domésticos.

Título original:
A Vigilante
Año:
2018
Duración:
91 min
País:
USA
Director:
Sarah Daggar-Nickson
Escritor:
Sarah Daggar-Nickson
Reparto:
Olivia Wilde, Morgan Spector, Kyle Catlett, Estefania Tejeda
Productora:
Uncorked Productions,Pulse Films,Badlands Entertainment,Emmett Furla Oasis Films,filmscience,MoviePass Films,River Bay Films,Highland Film Group
Género:
Suspense,Drama
A Vigilante (2018) BR-RIP 1080p DUAL

Format                      : Matroska
Format version              : Version 4 / Version 2
File size                   : 7.44 GiB
Duration                    : 1 h 31 min
Overall bit rate            : 11.7 Mb/s
Movie name                  : www.alt-torrent.com / By FllorTV
Encoded date                : UTC 2019-07-06 12:05:21
Writing application         : mkvmerge v31.0.0 ('Dolores In A Shoestand') 64-bit
Writing library             : libebml v1.3.6 + libmatroska v1.4.9

Video
ID                          : 1
Format                      : AVC
Format/Info                 : Advanced Video Codec
Format profile              : [email protected]
Format settings             : CABAC / 4 Ref Frames
Format settings, CABAC      : Yes
Format settings, RefFrames  : 4 frames
Codec ID                    : V_MPEG4/ISO/AVC
Duration                    : 1 h 31 min
Bit rate                    : 11.0 Mb/s
Width                       : 1 920 pixels
Height                      : 1 040 pixels
Display aspect ratio        : 1.85:1
Frame rate mode             : Constant
Frame rate                  : 23.976 (24000/1001) FPS
Color space                 : YUV
Chroma subsampling          : 4:2:0
Bit depth                   : 8 bits
Scan type                   : Progressive
Bits/(Pixel*Frame)          : 0.229
Stream size                 : 6.99 GiB (94%)
Title                       : www.alt-torrent.com / By FllorTV
Writing library             : x264 core 157 r2969 d4099dd
Encoding settings           : cabac=1 / ref=4 / deblock=1:0:0 / analyse=0x3:0x133 / me=umh / subme=7 / psy=1 / psy_rd=1.00:0.00 / mixed_ref=1 / me_range=16 / chroma_me=1 / trellis=1 / 8x8dct=1 / cqm=0 / deadzone=21,11 / fast_pskip=0 / chroma_qp_offset=-2 / threads=18 / lookahead_threads=3 / sliced_threads=0 / nr=0 / decimate=1 / interlaced=0 / bluray_compat=0 / constrained_intra=0 / bframes=3 / b_pyramid=2 / b_adapt=1 / b_bias=0 / direct=1 / weightb=1 / open_gop=0 / weightp=2 / keyint=240 / keyint_min=23 / scenecut=40 / intra_refresh=0 / rc_lookahead=40 / rc=2pass / mbtree=1 / bitrate=10983 / ratetol=1.0 / qcomp=0.60 / qpmin=10 / qpmax=51 / qpstep=4 / cplxblur=20.0 / qblur=0.5 / ip_ratio=1.40 / aq=1:1.00
Default                     : Yes
Forced                      : No

Audio #1
ID                          : 2
Format                      : AC-3
Format/Info                 : Audio Coding 3
Format settings, Endianness : Big
Codec ID                    : A_AC3
Duration                    : 1 h 31 min
Bit rate mode               : Constant
Bit rate                    : 256 kb/s
Channel(s)                  : 2 channels
Channel positions           : Front: L R
Sampling rate               : 48.0 kHz
Frame rate                  : 31.250 FPS (1536 SPF)
Bit depth                   : 16 bits
Compression mode            : Lossy
Stream size                 : 167 MiB (2%)
Title                       : Latino
Language                    : Spanish
Service kind                : Complete Main
Default                     : Yes
Forced                      : No

Audio #2
ID                          : 3
Format                      : AC-3
Format/Info                 : Audio Coding 3
Format settings, Endianness : Big
Codec ID                    : A_AC3
Duration                    : 1 h 31 min
Bit rate mode               : Constant
Bit rate                    : 448 kb/s
Channel(s)                  : 6 channels
Channel positions           : Front: L C R, Side: L R, LFE
Sampling rate               : 48.0 kHz
Frame rate                  : 31.250 FPS (1536 SPF)
Bit depth                   : 16 bits
Compression mode            : Lossy
Stream size                 : 292 MiB (4%)
Title                       : Ingles
Language                    : English
Service kind                : Complete Main
Default                     : No
Forced                      : No

Text #1
ID                          : 4
Format                      : UTF-8
Codec ID                    : S_TEXT/UTF8
Codec ID/Info               : UTF-8 Plain Text
Duration                    : 5 s 0 ms
Bit rate                    : 49 b/s
Count of elements           : 1
Stream size                 : 31.0 Bytes (0%)
Title                       : Forzados
Language                    : Spanish
Default                     : Yes
Forced                      : Yes

Text #2
ID                          : 5
Format                      : UTF-8
Codec ID                    : S_TEXT/UTF8
Codec ID/Info               : UTF-8 Plain Text
Duration                    : 1 h 24 min
Bit rate                    : 20 b/s
Count of elements           : 412
Stream size                 : 12.9 KiB (0%)
Title                       : Latino
Language                    : Spanish
Default                     : No
Forced                      : No

Menu
00:00:00.000                : :Chapter 1
00:03:41.138                : :Chapter 2
00:12:33.253                : :Chapter 3
00:16:13.139                : :Chapter 4
00:21:27.036                : :Chapter 5
00:26:54.279                : :Chapter 6
00:31:14.039                : :Chapter 7
00:38:22.717                : :Chapter 8
00:45:25.681                : :Chapter 9
00:48:27.988                : :Chapter 10
00:55:48.971                : :Chapter 11
00:58:34.886                : :Chapter 12
01:08:25.977                : :Chapter 13
01:10:26.389                : :Chapter 14
01:15:58.971                : :Chapter 15
01:23:39.806                : :Chapter 16


BitRate : 11.7 Mb/s
Audio Latino : AC3 2.0
Audio Inglés : AC3 2.0

* Chrome esta marcando los .torrent como archivos peligrosos,
Descarguenlos con confianza, son los mismos torrent de siempre.