7.2/10
108.298
8.3/10
6

Alt-torrent Películas con audio latino para ver y compartir

Aladdin es un adorable pero desafortunado ladronzuelo enamorado de la hija del Sultán, la princesa Jasmine. Para intentar conquistarla, acepta el desafío de Jafar, que consiste en entrar a una cueva en mitad del desierto para dar con una lámpara mágica que le concederá todos sus deseos. Allí es donde Aladdín conocerá al Genio, dando inicio a una aventura como nunca antes había imaginado.

Título original:
Aladdin
Año:
2019
Duración:
128 min
País:
USA
Director:
Guy Ritchie
Escritor:
John August (screenplay by), Guy Ritchie (screenplay by)
Reparto:
Will Smith, Mena Massoud, Naomi Scott, Marwan Kenzari
Productora:
Walt Disney Pictures,Lin Pictures,Rideback,Marc Platt Productions,Hurwitz Creative
Género:
Aventura,Fantasía,Romance,Comedia,Familia
General
Unique ID                                : 209714675703659067251691835314246831644 (0x9DC593CE9E9841E39DF3470D32ACCE1C)
Complete name                            : Aladdin (2019) WEBDL 720p LAT - FllorTV.mkv
Format                                   : Matroska
Format version                           : Version 4
File size                                : 2.78 GiB
Duration                                 : 2 h 7 min
Overall bit rate                         : 3 113 kb/s
Movie name                               : ww.alt-torrent.com
Encoded date                             : UTC 2019-08-08 23:37:32
Writing application                      : mkvmerge v27.0.0 ('Metropolis') 64-bit
Writing library                          : libebml v1.3.6 + libmatroska v1.4.9

Video
ID                                       : 1
Format                                   : AVC
Format/Info                              : Advanced Video Codec
Format profile                           : [email protected]
Format settings                          : CABAC / 4 Ref Frames
Format settings, CABAC                   : Yes
Format settings, ReFrames                : 4 frames
Codec ID                                 : V_MPEG4/ISO/AVC
Duration                                 : 2 h 7 min
Bit rate                                 : 2 555 kb/s
Width                                    : 1 280 pixels
Height                                   : 536 pixels
Display aspect ratio                     : 2.40:1
Frame rate mode                          : Constant
Frame rate                               : 23.976 (24000/1001) FPS
Color space                              : YUV
Chroma subsampling                       : 4:2:0
Bit depth                                : 8 bits
Scan type                                : Progressive
Bits/(Pixel*Frame)                       : 0.155
Stream size                              : 2.28 GiB (82%)
Title                                    : ww.alt-torrent.com
Writing library                          : x264 core 142 r2479 dd79a61
Encoding settings                        : cabac=1 / ref=1 / deblock=1:0:0 / analyse=0x3:0x3 / me=dia / subme=1 / psy=1 / psy_rd=1.00:0.00 / mixed_ref=0 / me_range=16 / chroma_me=1 / trellis=0 / 8x8dct=1 / cqm=0 / deadzone=21,11 / fast_pskip=1 / chroma_qp_offset=0 / threads=24 / lookahead_threads=4 / sliced_threads=0 / nr=0 / decimate=1 / interlaced=0 / bluray_compat=0 / constrained_intra=0 / bframes=3 / b_pyramid=2 / b_adapt=1 / b_bias=0 / direct=1 / weightb=1 / open_gop=0 / weightp=1 / keyint=240 / keyint_min=24 / scenecut=40 / intra_refresh=0 / rc_lookahead=0 / rc=abr / mbtree=0 / bitrate=2555 / ratetol=1.0 / qcomp=0.60 / qpmin=0 / qpmax=69 / qpstep=4 / vbv_maxrate=62500 / vbv_bufsize=78125 / nal_hrd=none / filler=0 / ip_ratio=1.40 / pb_ratio=1.30 / aq=1:1.00
Default                                  : Yes
Forced                                   : No
Color range                              : Limited
Color primaries                          : BT.709
Transfer characteristics                 : BT.709
Matrix coefficients                      : BT.709

Audio #1
ID                                       : 2
Format                                   : AC-3
Format/Info                              : Audio Coding 3
Commercial name                          : Dolby Digital
Codec ID                                 : A_AC3
Duration                                 : 2 h 0 min
Bit rate mode                            : Constant
Bit rate                                 : 192 kb/s
Channel(s)                               : 2 channels
Channel layout                           : L R
Sampling rate                            : 48.0 kHz
Frame rate                               : 31.250 FPS (1536 SPF)
Bit depth                                : 16 bits
Compression mode                         : Lossy
Delay relative to video                  : -83 ms
Stream size                              : 165 MiB (6%)
Title                                    : ww.alt-torrent.com
Language                                 : Spanish
Service kind                             : Complete Main
Default                                  : Yes
Forced                                   : Yes

Audio #2
ID                                       : 3
Format                                   : AC-3
Format/Info                              : Audio Coding 3
Commercial name                          : Dolby Digital
Codec ID                                 : A_AC3
Duration                                 : 2 h 7 min
Bit rate mode                            : Constant
Bit rate                                 : 384 kb/s
Channel(s)                               : 6 channels
Channel layout                           : L R C LFE Ls Rs
Sampling rate                            : 48.0 kHz
Frame rate                               : 31.250 FPS (1536 SPF)
Bit depth                                : 16 bits
Compression mode                         : Lossy
Delay relative to video                  : -23 ms
Stream size                              : 351 MiB (12%)
Title                                    : ww.alt-torrent.com
Language                                 : English
Service kind                             : Complete Main
Default                                  : No
Forced                                   : No

Text
ID                                       : 4
Format                                   : UTF-8
Codec ID                                 : S_TEXT/UTF8
Codec ID/Info                            : UTF-8 Plain Text
Duration                                 : 2 h 6 min
Bit rate                                 : 66 b/s
Count of elements                        : 1982
Stream size                              : 61.3 KiB (0%)
Title                                    : ww.alt-torrent.com
Language                                 : Spanish
Default                                  : Yes
Forced                                   : No


BitRate : 3 113 kb/s
Audio Latino : LINE 2.0
Audio Inglés : LINE 2.0
* LINE es audio grabado de cine. Si no te gusta esta calidad,
No reclames, espera a que salga un audio de mejor calidad

* Chrome esta marcando los .torrent como archivos peligrosos,
Descarguenlos con confianza, son los mismos torrent de siempre.

 AUDIO LATINO AC3 LINE (SE OYE BIEN)
AUDIO INGLES AC3 5.1
+ SUBTITULO SRT LATINO


Calidad Versión Atributo Tamaño link
BR-RIP 1080p 3.87 GB aladdin-br-rip-1080p-lat.html
BR-RIP 720p 2.98 GB aladdin-br-rip-720p-lat.html
WEBDL 1080p 4.43 GB aladdin-1080p-webdl-1080p-lat.html