7.5/10
98.731
9.3/10
12

Alt-torrent Películas con audio latino para ver y compartir

Ido, un compasivo médico de ciborgs, encuentra a Alita abandonada en el desguace de Iron City. Cuando Alita despierta, no sabe quién es, ni reconoce el mundo en el que se encuentra, todo es nuevo para ella. Ido intentará proteger a Alita de su misterioso pasado, mientras que su nuevo amigo Hugo le ayudará a despertar sus recuerdos. En ese momento, Alita descubre que posee habilidades de combate extraordinarias, que podría usar para salvar a su nueva familia y amigos. Decidida a descubrir la verdad tras sus orígenes, Alita comienza un viaje que le enfrentará a las injusticias de un mundo oscuro y corrupto, descubriendo que solo ella puede cambiar el mundo en el que vive.

Título original:
Alita: Battle Angel
Año:
2019
Duración:
122 min
País:
USA
Director:
Robert Rodriguez
Escritor:
James Cameron (screenplay by), Laeta Kalogridis (screenplay by), Yukito Kishiro (based on the graphic novel series "Gunnm" by)
Reparto:
Rosa Salazar, Christoph Waltz, Jennifer Connelly, Mahershala Ali
Productora:
Troublemaker Studios,Lightstorm Entertainment,20th Century Fox,TSG Entertainment
Género:
Acción,Ciencia ficción,Suspense,Aventura
Format                                   : Matroska
Format version                           : Version 4
File size                                : 21.4 GiB
Duration                                 : 2 h 1 min
Overall bit rate                         : 25.1 Mb/s
Movie name                               : www.alt-torrent.com
Encoded date                             : UTC 2019-07-09 22:18:09
Writing application                      : mkvmerge v27.0.0 ('Metropolis') 64-bit
Writing library                          : libebml v1.3.6 + libmatroska v1.4.9

Video
ID                                       : 1
Format                                   : HEVC
Format/Info                              : High Efficiency Video Coding
Commercial name                          : HDR10
Format profile                           : Main [email protected]@High
Codec ID                                 : V_MPEGH/ISO/HEVC
Duration                                 : 2 h 1 min
Bit rate                                 : 24.5 Mb/s
Width                                    : 3 840 pixels
Height                                   : 1 608 pixels
Original height                          : 2 160 pixels
Display aspect ratio                     : 16:9
Frame rate mode                          : Constant
Frame rate                               : 23.976 (24000/1001) FPS
Color space                              : YUV
Chroma subsampling                       : 4:2:0 (Type 2)
Bit depth                                : 10 bits
Bits/(Pixel*Frame)                       : 0.165
Stream size                              : 20.9 GiB (97%)
Title                                    : www.alt-torrent.com
Language                                 : English
Default                                  : Yes
Forced                                   : No
Color range                              : Limited
Color primaries                          : BT.2020
Transfer characteristics                 : PQ
Matrix coefficients                      : BT.2020 non-constant
Mastering display color primaries        : Display P3
Mastering display luminance              : min: 0.0050 cd/m2, max: 1000 cd/m2

Audio #1
ID                                       : 2
Format                                   : AC-3
Format/Info                              : Audio Coding 3
Commercial name                          : Dolby Digital
Codec ID                                 : A_AC3
Duration                                 : 2 h 1 min
Bit rate mode                            : Constant
Bit rate                                 : 256 kb/s
Channel(s)                               : 2 channels
Channel layout                           : L R
Sampling rate                            : 48.0 kHz
Frame rate                               : 31.250 FPS (1536 SPF)
Bit depth                                : 16 bits
Compression mode                         : Lossy
Stream size                              : 223 MiB (1%)
Title                                    : www.alt-torrent.com
Language                                 : Spanish
Service kind                             : Complete Main
Default                                  : Yes
Forced                                   : Yes

Audio #2
ID                                       : 3
Format                                   : AC-3
Format/Info                              : Audio Coding 3
Commercial name                          : Dolby Digital
Codec ID                                 : A_AC3
Duration                                 : 2 h 1 min
Bit rate mode                            : Constant
Bit rate                                 : 384 kb/s
Channel(s)                               : 6 channels
Channel layout                           : L R C LFE Ls Rs
Sampling rate                            : 48.0 kHz
Frame rate                               : 31.250 FPS (1536 SPF)
Bit depth                                : 16 bits
Compression mode                         : Lossy
Delay relative to video                  : 83 ms
Stream size                              : 335 MiB (2%)
Title                                    : www.alt-torrent.com
Language                                 : English
Service kind                             : Complete Main
Default                                  : No
Forced                                   : No

Text
ID                                       : 4
Format                                   : UTF-8
Codec ID                                 : S_TEXT/UTF8
Codec ID/Info                            : UTF-8 Plain Text
Duration                                 : 2 h 1 min
Bit rate                                 : 36 b/s
Count of elements                        : 1239
Stream size                              : 32.8 KiB (0%)
Title                                    : www.alt-torrent.com
Language                                 : Spanish
Default                                  : No
Forced                                   : No

BitRate : 25.1 Mb/s
Audio Latino : AC3 2.0
Audio Inglés : AC3 2.0

* Chrome esta marcando los .torrent como archivos peligrosos,
Descarguenlos con confianza, son los mismos torrent de siempre.

 AMBOS AUDIOS FINALES
LATINO AC3 2.0 - INGLES AC3 5.1
+ SUBTITULO SRT LATINO


Calidad Versión Atributo Tamaño link
BR-RIP 1080p 5.01 GB alita-battle-angel-1080p-br-rip-1080p-lat.html
BR-RIP 720p 2.9 GB alita-battle-angel-720p-br-rip-720p-lat.html
FullHD 1080p 5.81 GB alita-battle-angel-1080p-fullhd-1080p-lat.html
HD-RIP 1080p 3.85 GB alita-battle-angel-1080p-2019-hd-rip-lat.html
HD-RIP 720p 2.4 GB alita-battle-angel-720p-2019-hd-rip-lat.html
WEBDL 1080p 4.42 GB alita-battle-angel-1080p-webdl-1080p-lat.html
WEBDL 720p 2.68 GB alita-battle-angel-720p-webdl-720p-lat.html