7.5/10
98.731
9.5/10
4

Alt-torrent Películas con audio latino para ver y compartir

Ido, un compasivo médico de ciborgs, encuentra a Alita abandonada en el desguace de Iron City. Cuando Alita despierta, no sabe quién es, ni reconoce el mundo en el que se encuentra, todo es nuevo para ella. Ido intentará proteger a Alita de su misterioso pasado, mientras que su nuevo amigo Hugo le ayudará a despertar sus recuerdos. En ese momento, Alita descubre que posee habilidades de combate extraordinarias, que podría usar para salvar a su nueva familia y amigos. Decidida a descubrir la verdad tras sus orígenes, Alita comienza un viaje que le enfrentará a las injusticias de un mundo oscuro y corrupto, descubriendo que solo ella puede cambiar el mundo en el que vive.

Título original:
Alita: Battle Angel
Año:
2019
Duración:
122 min
País:
USA
Director:
Robert Rodriguez
Escritor:
James Cameron (screenplay by), Laeta Kalogridis (screenplay by), Yukito Kishiro (based on the graphic novel series "Gunnm" by)
Reparto:
Rosa Salazar, Christoph Waltz, Jennifer Connelly, Mahershala Ali
Productora:
Troublemaker Studios,Lightstorm Entertainment,20th Century Fox,TSG Entertainment
Género:
Acción,Ciencia ficción,Suspense,Aventura
Format                                   : Matroska
Format version                           : Version 4
File size                                : 2.39 GiB
Duration                                 : 2 h 1 min
Overall bit rate                         : 2 814 kb/s
Movie name                               : www.alt-torrent.com
Encoded date                             : UTC 2019-06-30 00:39:30
Writing application                      : mkvmerge v27.0.0 ('Metropolis') 64-bit
Writing library                          : libebml v1.3.6 + libmatroska v1.4.9

Video
ID                                       : 1
Format                                   : AVC
Format/Info                              : Advanced Video Codec
Format profile                           : [email protected]
Format settings                          : CABAC / 2 Ref Frames
Format settings, CABAC                   : Yes
Format settings, ReFrames                : 2 frames
Codec ID                                 : V_MPEG4/ISO/AVC
Duration                                 : 2 h 1 min
Bit rate                                 : 2 500 kb/s
Width                                    : 1 280 pixels
Height                                   : 720 pixels
Display aspect ratio                     : 16:9
Frame rate mode                          : Constant
Frame rate                               : 23.976 (24000/1001) FPS
Color space                              : YUV
Chroma subsampling                       : 4:2:0
Bit depth                                : 8 bits
Scan type                                : Progressive
Bits/(Pixel*Frame)                       : 0.113
Stream size                              : 2.12 GiB (89%)
Title                                    : www.alt-torrent.com
Writing library                          : x264 core 155 r2901
Encoding settings                        : cabac=1 / ref=2 / deblock=1:0:0 / analyse=0x3:0x133 / me=hex / subme=7 / psy=1 / psy_rd=1.00:0.00 / mixed_ref=0 / me_range=16 / chroma_me=1 / trellis=1 / 8x8dct=1 / cqm=0 / deadzone=21,11 / fast_pskip=1 / chroma_qp_offset=-2 / threads=12 / lookahead_threads=2 / sliced_threads=0 / nr=0 / decimate=1 / interlaced=0 / bluray_compat=0 / constrained_intra=0 / bframes=3 / b_pyramid=0 / b_adapt=1 / b_bias=0 / direct=0 / weightb=1 / open_gop=0 / weightp=2 / keyint=239 / keyint_min=23 / scenecut=40 / intra_refresh=0 / rc_lookahead=40 / rc=2pass / mbtree=1 / bitrate=2500 / ratetol=1.0 / qcomp=0.60 / qpmin=10 / qpmax=69 / qpstep=4 / cplxblur=20.0 / qblur=0.5 / vbv_maxrate=3000 / vbv_bufsize=24000 / nal_hrd=none / filler=0 / ip_ratio=1.40 / aq=3:1.00
Default                                  : Yes
Forced                                   : No

Audio #1
ID                                       : 2
Format                                   : AC-3
Format/Info                              : Audio Coding 3
Commercial name                          : Dolby Digital
Codec ID                                 : A_AC3
Duration                                 : 2 h 1 min
Bit rate mode                            : Constant
Bit rate                                 : 192 kb/s
Channel(s)                               : 2 channels
Channel layout                           : L R
Sampling rate                            : 48.0 kHz
Frame rate                               : 31.250 FPS (1536 SPF)
Bit depth                                : 16 bits
Compression mode                         : Lossy
Delay relative to video                  : -83 ms
Stream size                              : 167 MiB (7%)
Title                                    : www.alt-torrent.com
Language                                 : Spanish
Service kind                             : Complete Main
Default                                  : Yes
Forced                                   : No

Audio #2
ID                                       : 3
Format                                   : AAC LC
Format/Info                              : Advanced Audio Codec Low Complexity
Codec ID                                 : A_AAC-2
Duration                                 : 2 h 1 min
Bit rate                                 : 128 kb/s
Channel(s)                               : 2 channels
Channel layout                           : L R
Sampling rate                            : 44.1 kHz
Frame rate                               : 43.066 FPS (1024 SPF)
Compression mode                         : Lossy
Delay relative to video                  : -83 ms
Stream size                              : 112 MiB (5%)
Title                                    : www.alt-torrent.com
Language                                 : English
Default                                  : No
Forced                                   : No

Text
ID                                       : 4
Format                                   : UTF-8
Codec ID                                 : S_TEXT/UTF8
Codec ID/Info                            : UTF-8 Plain Text
Duration                                 : 1 h 55 min
Bit rate                                 : 44 b/s
Count of elements                        : 1310
Stream size                              : 37.3 KiB (0%)
Title                                    : www.alt-torrent.com
Language                                 : Spanish
Default                                  : Yes
Forced                                   : No

BitRate : 2 814 kb/s
Audio Latino : LINE 2.0
Audio Inglés : LINE 2.0
* LINE es audio grabado de cine. Si no te gusta esta calidad,
No reclames, espera a que salga un audio de mejor calidad

* Chrome esta marcando los .torrent como archivos peligrosos,
Descarguenlos con confianza, son los mismos torrent de siempre.

 AUDIO LATINO LINE AC3 2.0 
AUDIO INGLES AAC 2.0
+ SUBTITULO SRT LATINO


Calidad Versión Atributo Tamaño link
4K 2160p H.265 21.4 GB alita-battle-angel-2160p-4k-2160p-lat.html
BR-RIP 1080p 5.01 GB alita-battle-angel-1080p-br-rip-1080p-lat.html
BR-RIP 720p 2.9 GB alita-battle-angel-720p-br-rip-720p-lat.html
FullHD 1080p 5.81 GB alita-battle-angel-1080p-fullhd-1080p-lat.html
HD-RIP 1080p 3.85 GB alita-battle-angel-1080p-2019-hd-rip-lat.html
WEBDL 1080p 4.42 GB alita-battle-angel-1080p-webdl-1080p-lat.html
WEBDL 720p 2.68 GB alita-battle-angel-720p-webdl-720p-lat.html