7.1/10
277.454
7.8/10
24

Alt-torrent Películas con audio latino para ver y compartir

Un icono durante más de 70 años, Aquaman (Jason Momoa) es el Rey de los Siete Mares. Este reacio gobernante de Atlantis se encuentra atrapado entre los constantes estragos causados al mar por los habitantes de la superficie y los atlantes buscando rebelarse. Pese a todo está decidido a proteger el mundo entero.

Título original:
Aquaman
Año:
2018
Duración:
143 min
País:
Australia, USA
Director:
James Wan
Escritor:
David Leslie Johnson-McGoldrick (screenplay by), Will Beall (screenplay by), Geoff Johns (story by), James Wan (story by), Will Beall (story by), Mort Weisinger (Aquaman created by), Paul Norris (Aquaman created by)
Reparto:
Jason Momoa, Amber Heard, Willem Dafoe, Patrick Wilson
Productora:
DC Comics,DC Entertainment,Warner Bros. Pictures,The Safran Company,Mad Ghost Productions,Rodeo FX,Panoramic Pictures
Género:
Acción,Aventura,Fantasía,Ciencia ficción
Format                                   : Matroska
Format version                           : Version 4
File size                                : 14.5 GiB
Duration                                 : 2 h 23 min
Overall bit rate                         : 14.4 Mb/s
Movie name                               : www.alt-torrent.com
Encoded date                             : UTC 2019-03-06 23:20:39
Writing application                      : mkvmerge v27.0.0 ('Metropolis') 64-bit
Writing library                          : libebml v1.3.6 + libmatroska v1.4.9

Video
ID                                       : 1
Format                                   : HEVC
Format/Info                              : High Efficiency Video Coding
Commercial name                          : HDR10
Format profile                           : Main [email protected]@Main
Codec ID                                 : V_MPEGH/ISO/HEVC
Duration                                 : 2 h 23 min
Bit rate                                 : 13.6 Mb/s
Width                                    : 3 840 pixels
Height                                   : 2 160 pixels
Display aspect ratio                     : 16:9
Frame rate mode                          : Constant
Frame rate                               : 23.976 (24000/1001) FPS
Color space                              : YUV
Chroma subsampling                       : 4:2:0 (Type 2)
Bit depth                                : 10 bits
Bits/(Pixel*Frame)                       : 0.068
Stream size                              : 13.6 GiB (94%)
Title                                    : www.alt-torrent.com
Default                                  : Yes
Forced                                   : No
Color range                              : Limited
Color primaries                          : BT.2020
Transfer characteristics                 : PQ
Matrix coefficients                      : BT.2020 non-constant
Mastering display color primaries        : Display P3
Mastering display luminance              : min: 0.0050 cd/m2, max: 4000 cd/m2
Maximum Content Light Level              : 1506 cd/m2
Maximum Frame-Average Light Level        : 459 cd/m2

Audio #1
ID                                       : 2
Format                                   : AC-3
Format/Info                              : Audio Coding 3
Commercial name                          : Dolby Digital
Codec ID                                 : A_AC3
Duration                                 : 2 h 23 min
Bit rate mode                            : Constant
Bit rate                                 : 384 kb/s
Channel(s)                               : 6 channels
Channel layout                           : L R C LFE Ls Rs
Sampling rate                            : 48.0 kHz
Frame rate                               : 31.250 FPS (1536 SPF)
Bit depth                                : 16 bits
Compression mode                         : Lossy
Stream size                              : 394 MiB (3%)
Title                                    : www.alt-torrent.com
Language                                 : Spanish
Service kind                             : Complete Main
Default                                  : Yes
Forced                                   : Yes

Audio #2
ID                                       : 3
Format                                   : AC-3
Format/Info                              : Audio Coding 3
Commercial name                          : Dolby Digital
Codec ID                                 : A_AC3
Duration                                 : 2 h 23 min
Bit rate mode                            : Constant
Bit rate                                 : 448 kb/s
Channel(s)                               : 6 channels
Channel layout                           : L R C LFE Ls Rs
Sampling rate                            : 48.0 kHz
Frame rate                               : 31.250 FPS (1536 SPF)
Bit depth                                : 16 bits
Compression mode                         : Lossy
Stream size                              : 459 MiB (3%)
Title                                    : www.alt-torrent.com
Language                                 : English
Service kind                             : Complete Main
Default                                  : No
Forced                                   : No

Text #1
ID                                       : 4
Format                                   : UTF-8
Codec ID                                 : S_TEXT/UTF8
Codec ID/Info                            : UTF-8 Plain Text
Duration                                 : 2 h 14 min
Bit rate                                 : 0 b/s
Count of elements                        : 29
Stream size                              : 884 Bytes (0%)
Title                                    : www.alt-torrent.com
Language                                 : Spanish
Default                                  : Yes
Forced                                   : No

Text #2
ID                                       : 5
Format                                   : UTF-8
Codec ID                                 : S_TEXT/UTF8
Codec ID/Info                            : UTF-8 Plain Text
Duration                                 : 2 h 14 min
Bit rate                                 : 37 b/s
Count of elements                        : 1126
Stream size                              : 36.5 KiB (0%)
Title                                    : www.alt-torrent.com
Language                                 : Spanish
Default                                  : No
Forced                                   : No

BitRate : 14.4 Mb/s
Audio Latino : AC3 5.1
Audio Inglés : AC3 5.1

* Chrome esta marcando los .torrent como archivos peligrosos,
Descarguenlos con confianza, son los mismos torrent de siempre.

 AMBOS AUDIOS FINALES 
+ SUBTITULOS SRT LATINO


Calidad Versión Atributo Tamaño link
BR-RIP 1080p 4.28 GB aquaman-1080p-2018-br-rip-lat.html
BR-RIP 720p 3.34 GB aquaman-720p-2018-br-rip-lat.html
FullHD 1080p 8.69 GB aquaman-1080p-2018-fullhd-lat.html
HD-RIP 1080p 4.18 GB aquaman-hc-hdrip-2018-1080p-eng.html
HD-RIP 720p 2.69 GB aquaman-hc-hdrip-2018-720p-eng.html
WEBDL 1080p Imax 6.15 GB aquaman-1080p-2018-webdl-lat.html
WEBDL 720p 3.31 GB aquaman-720p-2018-webdl-lat.html