8.9/10
360.133
8.6/10
27

Alt-torrent Películas para ver y compartir

Tras los sucesos de "Vengadores: Infinity War", los superhéroes que sobrevivieron a Thanos se reunen para poner en práctica un plan definitivo que podría acabar con el villano definitivamente. No saben si funcionará, pero es su única oportunidad de intentarlo. Cuarta entrega de la saga "Vengadores"

Título original:
Avengers: Endgame
Año:
2019
Duración:
181 min
País:
USA
Director:
Anthony Russo, Joe Russo
Escritor:
Christopher Markus, Stephen McFeely, Stan Lee (based on the Marvel comics by), Jack Kirby (based on the Marvel comics by), Jim Starlin (comic book)
Reparto:
Brie Larson, Robert Downey Jr., Karen Gillan, Tessa Thompson
Productora:
Walt Disney Studios,Marvel Studios
Género:
Aventura,Ciencia ficción,Acción
Format                                   : Matroska
Format version                           : Version 4
File size                                : 3.80 GiB
Duration                                 : 2 h 58 min
Overall bit rate                         : 3 043 kb/s
Movie name                               : www.alt-torrent.com
Encoded date                             : UTC 2019-04-28 23:23:52
Writing application                      : mkvmerge v27.0.0 ('Metropolis') 64-bit
Writing library                          : libebml v1.3.6 + libmatroska v1.4.9

Video
ID                                       : 1
Format                                   : AVC
Format/Info                              : Advanced Video Codec
Format profile                           : [email protected]
Format settings                          : CABAC / 2 Ref Frames
Format settings, CABAC                   : Yes
Format settings, ReFrames                : 2 frames
Format settings, GOP                     : M=4, N=24
Codec ID                                 : V_MPEG4/ISO/AVC
Duration                                 : 2 h 58 min
Bit rate mode                            : Constant
Bit rate                                 : 2 657 kb/s
Width                                    : 1 920 pixels
Height                                   : 810 pixels
Display aspect ratio                     : 2.40:1
Frame rate mode                          : Constant
Frame rate                               : 24.000 FPS
Color space                              : YUV
Chroma subsampling                       : 4:2:0
Bit depth                                : 8 bits
Scan type                                : Progressive
Bits/(Pixel*Frame)                       : 0.071
Stream size                              : 3.32 GiB (87%)
Title                                    : www.alt-torrent.com
Default                                  : Yes
Forced                                   : No

Audio
ID                                       : 2
Format                                   : AC-3
Format/Info                              : Audio Coding 3
Commercial name                          : Dolby Digital
Codec ID                                 : A_AC3
Duration                                 : 2 h 58 min
Bit rate mode                            : Constant
Bit rate                                 : 384 kb/s
Channel(s)                               : 2 channels
Channel layout                           : L R
Sampling rate                            : 48.0 kHz
Frame rate                               : 31.250 FPS (1536 SPF)
Bit depth                                : 16 bits
Compression mode                         : Lossy
Delay relative to video                  : 9 ms
Stream size                              : 491 MiB (13%)
Title                                    : www.alt-torrent.com
Language                                 : English
Service kind                             : Complete Main
Default                                  : Yes
Forced                                   : No

Text
ID                                       : 3
Format                                   : SSA
Codec ID                                 : S_TEXT/SSA
Codec ID/Info                            : Sub Station Alpha
Duration                                 : 2 h 49 min
Bit rate                                 : 115 b/s
Count of elements                        : 1904
Compression mode                         : Lossless
Stream size                              : 144 KiB (0%)
Title                                    : www.alt-torrent.com
Language                                 : Spanish
Default                                  : Yes
Forced                                   : No

BitRate : 3 043 kb/s
Audio Inglés : AC3 2.0

* Chrome esta marcando los .torrent como archivos peligrosos,
Descarguenlos con confianza, son los mismos torrent de siempre.

 CALIDAD HC-HDTS (CINE)
AUDIO INGLES (CINE)


Calidad Versión Atributo Tamaño link
HD-RIP 720p 3.3 GB avengers-endgame-720p-2019-hd-rip-eng.html