8.6/10
531.604
8.9/10
45

Alt-torrent Películas con audio latino para ver y compartir

Después de los eventos devastadores de 'Vengadores: Infinity War', el universo está en ruinas debido a las acciones de Thanos. Con la ayuda de los aliados que quedaron, los Vengadores deberán reunirse una vez más para intentar deshacer sus acciones y restaurar el orden en el universo de una vez por todas, sin importar cuáles sean las consecuencias... Cuarta y última entrega de la saga "Vengadores".

Título original:
Avengers: Endgame
Año:
2019
Duración:
181 min
País:
USA
Director:
Anthony Russo, Joe Russo
Escritor:
Christopher Markus (screenplay by), Stephen McFeely (screenplay by), Stan Lee (based on the Marvel comics by), Jack Kirby (based on the Marvel comics by), Jim Starlin (Thanos, Gamora & Drax created by), Jack Kirby (Groot created by)
Reparto:
Robert Downey Jr., Chris Evans, Mark Ruffalo, Chris Hemsworth
Productora:
Marvel Studios
Género:
Aventura,Ciencia ficción,Acción
Format                                   : Matroska
Format version                           : Version 4
File size                                : 31.6 GiB
Duration                                 : 3 h 1 min
Overall bit rate                         : 25.0 Mb/s
Movie name                               : www.alt-torrent.com
Encoded date                             : UTC 2019-07-30 19:11:36
Writing application                      : mkvmerge v27.0.0 ('Metropolis') 64-bit
Writing library                          : libebml v1.3.6 + libmatroska v1.4.9

Video
ID                                       : 1
Format                                   : HEVC
Format/Info                              : High Efficiency Video Coding
Format profile                           : Main [email protected]@High
Codec ID                                 : V_MPEGH/ISO/HEVC
Duration                                 : 3 h 1 min
Bit rate                                 : 24.8 Mb/s
Width                                    : 3 840 pixels
Height                                   : 1 608 pixels
Original height                          : 2 160 pixels
Display aspect ratio                     : 16:9
Frame rate mode                          : Constant
Frame rate                               : 23.976 (24000/1001) FPS
Color space                              : YUV
Chroma subsampling                       : 4:2:0 (Type 2)
Bit depth                                : 10 bits
Bits/(Pixel*Frame)                       : 0.167
Stream size                              : 31.3 GiB (99%)
Title                                    : www.alt-torrent.com
Language                                 : English
Default                                  : Yes
Forced                                   : No
Color range                              : Limited
Color primaries                          : BT.709
Transfer characteristics                 : BT.709
Matrix coefficients                      : BT.709

Audio #1
ID                                       : 2
Format                                   : AAC LC
Format/Info                              : Advanced Audio Codec Low Complexity
Codec ID                                 : A_AAC-2
Duration                                 : 3 h 1 min
Bit rate                                 : 125 kb/s
Channel(s)                               : 2 channels
Channel layout                           : L R
Sampling rate                            : 48.0 kHz
Frame rate                               : 46.875 FPS (1024 SPF)
Compression mode                         : Lossy
Stream size                              : 162 MiB (1%)
Title                                    : www.alt-torrent.com
Language                                 : Spanish
Default                                  : Yes
Forced                                   : No

Audio #2
ID                                       : 3
Format                                   : AAC LC
Format/Info                              : Advanced Audio Codec Low Complexity
Codec ID                                 : A_AAC-2
Duration                                 : 3 h 1 min
Bit rate                                 : 125 kb/s
Channel(s)                               : 6 channels
Channel layout                           : C L R Ls Rs LFE
Sampling rate                            : 48.0 kHz
Frame rate                               : 46.875 FPS (1024 SPF)
Compression mode                         : Lossy
Stream size                              : 162 MiB (1%)
Title                                    : www.alt-torrent.com
Language                                 : English
Default                                  : No
Forced                                   : No

Text #1
ID                                       : 4
Format                                   : UTF-8
Codec ID                                 : S_TEXT/UTF8
Codec ID/Info                            : UTF-8 Plain Text
Duration                                 : 2 h 21 min
Bit rate                                 : 0 b/s
Count of elements                        : 40
Stream size                              : 1.03 KiB (0%)
Title                                    : www.alt-torrent.com
Language                                 : Spanish
Default                                  : Yes
Forced                                   : No

Text #2
ID                                       : 5
Format                                   : UTF-8
Codec ID                                 : S_TEXT/UTF8
Codec ID/Info                            : UTF-8 Plain Text
Duration                                 : 2 h 47 min
Bit rate                                 : 55 b/s
Count of elements                        : 1903
Stream size                              : 68.2 KiB (0%)
Title                                    : www.alt-torrent.com
Language                                 : Spanish
Default                                  : No
Forced                                   : No

BitRate : 25.0 Mb/s
Audio Latino : AAC 2.0
Audio Inglés : AAC 2.0

* Chrome esta marcando los .torrent como archivos peligrosos,
Descarguenlos con confianza, son los mismos torrent de siempre.

 WEBDL 4K
AMBOS AUDIOS FINALES
LATINO AAC 2.0 - INGLES AAC 5.1
+ SUBTITULO SRT LATINO


Calidad Versión Atributo Tamaño link
BR-RIP 1080p 5.49 GB avengers-endgame-1080p-br-rip-1080p-lat.html
BR-RIP 720p 4.22 GB avengers-endgame-720p-br-rip-720p-lat.html
FullHD 1080p 7.58 GB avengers-endgame-1080p-fullhd-1080p-lat.html
HD-RIP 1080p 3.81 GB avengers-endgame-1080p-2019-hd-rip-eng.html
HD-RIP 720p 3.3 GB avengers-endgame-720p-2019-hd-rip-eng.html
HD-RIP 1080p 6.64 GB avengers-endgame-1080p-hd-rip-1080p-lat.html
HD-RIP 720p 3.49 GB avengers-endgame-720p-hd-rip-720p-lat.html
WEBDL 1080p 4.75 GB avengers-endgame-1080p-webdl-1080p-lat.html
WEBDL 720p 2.61 GB avengers-endgame-720p-webdl-720p-lat.html