8.6/10
531.604
9.1/10
23

Alt-torrent Películas para ver y compartir

Tras los sucesos de "Vengadores: Infinity War", los superhéroes que sobrevivieron a Thanos se reunen para poner en práctica un plan definitivo que podría acabar con el villano definitivamente. No saben si funcionará, pero es su única oportunidad de intentarlo. Cuarta entrega de la saga "Vengadores"

Título original:
Avengers: Endgame
Año:
2019
Duración:
181 min
País:
USA
Director:
Anthony Russo, Joe Russo
Escritor:
Christopher Markus, Stephen McFeely, Stan Lee (based on the Marvel comics by), Jack Kirby (based on the Marvel comics by), Jim Starlin (comic book)
Reparto:
Brie Larson, Robert Downey Jr., Karen Gillan, Tessa Thompson
Productora:
Walt Disney Studios,Marvel Studios
Género:
Aventura,Ciencia ficción,Acción
Format                                   : Matroska
Format version                           : Version 4
File size                                : 3.29 GiB
Duration                                 : 2 h 58 min
Overall bit rate                         : 2 636 kb/s
Movie name                               : www.alt-torrent.com
Encoded date                             : UTC 2019-04-28 23:22:43
Writing application                      : mkvmerge v27.0.0 ('Metropolis') 64-bit
Writing library                          : libebml v1.3.6 + libmatroska v1.4.9

Video
ID                                       : 1
Format                                   : AVC
Format/Info                              : Advanced Video Codec
Format profile                           : [email protected]
Format settings                          : CABAC / 2 Ref Frames
Format settings, CABAC                   : Yes
Format settings, ReFrames                : 2 frames
Codec ID                                 : V_MPEG4/ISO/AVC
Duration                                 : 2 h 58 min
Bit rate                                 : 2 250 kb/s
Width                                    : 1 280 pixels
Height                                   : 540 pixels
Display aspect ratio                     : 2.40:1
Frame rate mode                          : Constant
Frame rate                               : 24.000 FPS
Color space                              : YUV
Chroma subsampling                       : 4:2:0
Bit depth                                : 8 bits
Scan type                                : Progressive
Bits/(Pixel*Frame)                       : 0.136
Stream size                              : 2.81 GiB (85%)
Title                                    : www.alt-torrent.com
Writing library                          : x264 core 155 r2901
Encoding settings                        : cabac=1 / ref=2 / deblock=1:0:0 / analyse=0x3:0x133 / me=hex / subme=7 / psy=1 / psy_rd=1.00:0.00 / mixed_ref=0 / me_range=16 / chroma_me=1 / trellis=1 / 8x8dct=1 / cqm=0 / deadzone=21,11 / fast_pskip=1 / chroma_qp_offset=-2 / threads=12 / lookahead_threads=2 / sliced_threads=0 / nr=0 / decimate=1 / interlaced=0 / bluray_compat=0 / constrained_intra=0 / bframes=3 / b_pyramid=0 / b_adapt=1 / b_bias=0 / direct=3 / weightb=1 / open_gop=0 / weightp=2 / keyint=240 / keyint_min=24 / scenecut=40 / intra_refresh=0 / rc_lookahead=40 / rc=2pass / mbtree=1 / bitrate=2250 / ratetol=1.0 / qcomp=0.60 / qpmin=10 / qpmax=69 / qpstep=4 / cplxblur=20.0 / qblur=0.5 / vbv_maxrate=5500 / vbv_bufsize=24000 / nal_hrd=none / filler=0 / ip_ratio=1.40 / aq=3:1.00
Default                                  : Yes
Forced                                   : No

Audio
ID                                       : 2
Format                                   : AC-3
Format/Info                              : Audio Coding 3
Commercial name                          : Dolby Digital
Codec ID                                 : A_AC3
Duration                                 : 2 h 58 min
Bit rate mode                            : Constant
Bit rate                                 : 384 kb/s
Channel(s)                               : 2 channels
Channel layout                           : L R
Sampling rate                            : 48.0 kHz
Frame rate                               : 31.250 FPS (1536 SPF)
Bit depth                                : 16 bits
Compression mode                         : Lossy
Stream size                              : 491 MiB (15%)
Title                                    : www.alt-torrent.com
Language                                 : English
Service kind                             : Complete Main
Default                                  : Yes
Forced                                   : No

Text
ID                                       : 3
Format                                   : SSA
Codec ID                                 : S_TEXT/SSA
Codec ID/Info                            : Sub Station Alpha
Duration                                 : 2 h 49 min
Bit rate                                 : 115 b/s
Count of elements                        : 1904
Compression mode                         : Lossless
Stream size                              : 144 KiB (0%)
Title                                    : www.alt-torrent.com
Language                                 : Spanish
Default                                  : Yes
Forced                                   : No

BitRate : 2 636 kb/s
Audio Inglés : AC3 2.0

* Chrome esta marcando los .torrent como archivos peligrosos,
Descarguenlos con confianza, son los mismos torrent de siempre.

 CALIDAD HC-HDTS (CINE)
AUDIO INGLES (CINE)


Calidad Versión Atributo Tamaño link
4K 2160p 31.65 GB avengers-endgame-2160p-4k-2160p-lat.html
BR-RIP 1080p 5.49 GB avengers-endgame-1080p-br-rip-1080p-lat.html
BR-RIP 720p 4.22 GB avengers-endgame-720p-br-rip-720p-lat.html
FullHD 1080p 7.58 GB avengers-endgame-1080p-fullhd-1080p-lat.html
HD-RIP 1080p 3.81 GB avengers-endgame-1080p-2019-hd-rip-eng.html
HD-RIP 1080p 6.64 GB avengers-endgame-1080p-hd-rip-1080p-lat.html
HD-RIP 720p 3.49 GB avengers-endgame-720p-hd-rip-720p-lat.html
WEBDL 1080p 4.75 GB avengers-endgame-1080p-webdl-1080p-lat.html
WEBDL 720p 2.61 GB avengers-endgame-720p-webdl-720p-lat.html