8.6/10
531.604
9.6/10
25

Alt-torrent Películas con audio latino para ver y compartir

Después de los eventos devastadores de 'Vengadores: Infinity War', el universo está en ruinas debido a las acciones de Thanos. Con la ayuda de los aliados que quedaron, los Vengadores deberán reunirse una vez más para intentar deshacer sus acciones y restaurar el orden en el universo de una vez por todas, sin importar cuáles sean las consecuencias... Cuarta y última entrega de la saga "Vengadores".

Ttulo original:
Avengers: Endgame
Ao:
2019
Duracin:
181 min
Pas:
USA
Director:
Anthony Russo, Joe Russo
Escritor:
Christopher Markus (screenplay by), Stephen McFeely (screenplay by), Stan Lee (based on the Marvel comics by), Jack Kirby (based on the Marvel comics by), Jim Starlin (Thanos, Gamora & Drax created by), Jack Kirby (Groot created by)
Reparto:
Robert Downey Jr., Chris Evans, Mark Ruffalo, Chris Hemsworth
Productora:
Marvel Studios
Gnero:
Aventura,Ciencia ficcin,Accin
General
Unique ID                                : 316735622689665133159296188577056432880 (0xEE490FE07DC9DB1B65674923CB3622F0)
Complete name                            : Avengers - Endgame (2019) BLURAY 1080p LAT - FllorTV.mkv
Format                                   : Matroska
Format version                           : Version 4
File size                                : 7.33 GiB
Duration                                 : 3 h 1 min
Overall bit rate                         : 5 773 kb/s
Movie name                               : www.alt-torrent.com
Encoded date                             : UTC 2019-08-20 05:31:46
Writing application                      : mkvmerge v27.0.0 ('Metropolis') 64-bit
Writing library                          : libebml v1.3.6 + libmatroska v1.4.9

Video
ID                                       : 1
Format                                   : AVC
Format/Info                              : Advanced Video Codec
Format profile                           : [email protected]
Format settings                          : CABAC / 4 Ref Frames
Format settings, CABAC                   : Yes
Format settings, ReFrames                : 4 frames
Codec ID                                 : V_MPEG4/ISO/AVC
Duration                                 : 3 h 1 min
Bit rate                                 : 4 112 kb/s
Nominal bit rate                         : 5 000 kb/s
Width                                    : 1 920 pixels
Height                                   : 1 080 pixels
Display aspect ratio                     : 16:9
Frame rate mode                          : Constant
Frame rate                               : 23.976 (24000/1001) FPS
Color space                              : YUV
Chroma subsampling                       : 4:2:0
Bit depth                                : 8 bits
Scan type                                : Progressive
Bits/(Pixel*Frame)                       : 0.083
Stream size                              : 5.22 GiB (71%)
Title                                    : www.alt-torrent.com
Writing library                          : x264 core 148 r2721 72d53ab
Encoding settings                        : cabac=1 / ref=4 / deblock=1:0:0 / analyse=0x3:0x133 / me=umh / subme=10 / psy=1 / psy_rd=1.00:0.00 / mixed_ref=1 / me_range=24 / chroma_me=1 / trellis=2 / 8x8dct=1 / cqm=0 / deadzone=21,11 / fast_pskip=1 / chroma_qp_offset=-2 / threads=34 / lookahead_threads=5 / sliced_threads=0 / nr=0 / decimate=1 / interlaced=0 / bluray_compat=0 / constrained_intra=0 / bframes=8 / b_pyramid=2 / b_adapt=2 / b_bias=0 / direct=3 / weightb=1 / open_gop=0 / weightp=2 / keyint=100 / keyint_min=50 / scenecut=40 / intra_refresh=0 / rc_lookahead=60 / rc=2pass / mbtree=1 / bitrate=5000 / ratetol=1.0 / qcomp=0.60 / qpmin=0 / qpmax=69 / qpstep=4 / cplxblur=20.0 / qblur=0.5 / vbv_maxrate=5500 / vbv_bufsize=920 / nal_hrd=none / filler=0 / ip_ratio=1.40 / aq=1:1.00
Language                                 : Russian
Default                                  : Yes
Forced                                   : No

Audio #1
ID                                       : 2
Format                                   : E-AC-3
Format/Info                              : Enhanced AC-3
Commercial name                          : Dolby Digital Plus
Format profile                           : Blu-ray Disc
Codec ID                                 : A_EAC3
Duration                                 : 3 h 1 min
Bit rate mode                            : Constant
Bit rate                                 : 1 024 kb/s
Channel(s)                               : 8 channels
Channel layout                           : L R C LFE Ls Rs Lb Rb
Sampling rate                            : 48.0 kHz
Frame rate                               : 31.250 FPS (1536 SPF)
Compression mode                         : Lossy
Delay relative to video                  : 28 ms
Stream size                              : 1.30 GiB (18%)
Title                                    : www.alt-torrent.com
Language                                 : Spanish
Service kind                             : Complete Main
Default                                  : Yes
Forced                                   : Yes

Audio #2
ID                                       : 3
Format                                   : AC-3
Format/Info                              : Audio Coding 3
Commercial name                          : Dolby Digital
Codec ID                                 : A_AC3
Duration                                 : 3 h 1 min
Bit rate mode                            : Constant
Bit rate                                 : 640 kb/s
Channel(s)                               : 6 channels
Channel layout                           : L R C LFE Ls Rs
Sampling rate                            : 48.0 kHz
Frame rate                               : 31.250 FPS (1536 SPF)
Bit depth                                : 16 bits
Compression mode                         : Lossy
Stream size                              : 829 MiB (11%)
Title                                    : www.alt-torrent.com
Language                                 : English
Service kind                             : Complete Main
Default                                  : No
Forced                                   : No

Text #1
ID                                       : 4
Format                                   : UTF-8
Codec ID                                 : S_TEXT/UTF8
Codec ID/Info                            : UTF-8 Plain Text
Duration                                 : 1 h 24 min
Bit rate                                 : 1 b/s
Count of elements                        : 28
Stream size                              : 645 Bytes (0%)
Title                                    : www.alt-torrent.com
Language                                 : Spanish
Default                                  : Yes
Forced                                   : Yes

Text #2
ID                                       : 5
Format                                   : UTF-8
Codec ID                                 : S_TEXT/UTF8
Codec ID/Info                            : UTF-8 Plain Text
Duration                                 : 2 h 47 min
Bit rate                                 : 48 b/s
Count of elements                        : 2197
Stream size                              : 59.9 KiB (0%)
Title                                    : www.alt-torrent.com
Language                                 : Spanish
Default                                  : No
Forced                                   : No


BitRate : 5 773 kb/s
Audio Latino : AC3 5.1
Audio Inglés : AC3 5.1

* Chrome esta marcando los .torrent como archivos peligrosos,
Descarguenlos con confianza, son los mismos torrent de siempre.

 AMBOS AUDIOS FINALES
LATINO AC3 5.1 - INGLES AC3 5.1
+ SUBTITULO SRT LATINO


Calidad Versión Atributo Tamaño link
4K 2160p 31.65 GB avengers-endgame-2160p-4k-2160p-lat.html
BR-RIP 1080p 5.49 GB avengers-endgame-1080p-br-rip-1080p-lat.html
BR-RIP 720p 4.22 GB avengers-endgame-720p-br-rip-720p-lat.html
FullHD 1080p 7.58 GB avengers-endgame-1080p-fullhd-1080p-lat.html
HD-RIP 1080p 3.81 GB avengers-endgame-1080p-2019-hd-rip-eng.html
HD-RIP 720p 3.3 GB avengers-endgame-720p-2019-hd-rip-eng.html
HD-RIP 1080p 6.64 GB avengers-endgame-1080p-hd-rip-1080p-lat.html
HD-RIP 720p 3.49 GB avengers-endgame-720p-hd-rip-720p-lat.html
WEBDL 1080p 4.75 GB avengers-endgame-1080p-webdl-1080p-lat.html
WEBDL 720p 2.61 GB avengers-endgame-720p-webdl-720p-lat.html