8.5/10
669.532
8.5/10
61

Alt-torrent Películas con audio latino para ver y compartir

Vengadores: Infinity War seguirá la lucha de los superhéroes de Marvel contra el mayor villano al que se han enfrentado nunca: Thanos. Su único objetivo será detener a este poderoso antagonista e impedir que se haga con el control de la galaxia. De nuevo veremos al grupo formado por Iron Man, Capitán América, Viuda negra, Ant-Man, Ojo de Halcón, Thor y Hulk, entre otros. En su nueva e impactante aventura, las Gemas del Infinito estarán en juego, unos querrán protegerlas y otros controlarlas, ¿quién ganará?

Título original:
Avengers: Infinity War
Año:
2018
Duración:
149 min
País:
USA
Director:
Anthony Russo, Joe Russo
Escritor:
Christopher Markus (screenplay by), Stephen McFeely (screenplay by), Stan Lee (based on the Marvel comics by), Jack Kirby (based on the Marvel comics by), Joe Simon (Captain America created by), Jack Kirby (Captain America created by), Steve Englehart (Star-Lord created by), Steve Gan (Star-Lord created by), Bill Mantlo (Rocket Raccoon created by), Keith Giffen (Rocket Raccoon created by), Jim Starlin (Thanos, Gamora and Drax created by), Stan Lee (Groot created by), Larry Lieber (Groot created by), Jack Kirby (Groot created by), Steve Englehart (Mantis created by), Don Heck (Mantis created by)
Reparto:
Robert Downey Jr., Chris Hemsworth, Mark Ruffalo, Chris Evans
Productora:
Marvel Studios
Género:
Aventura,Ciencia ficción,Fantasía,Acción
General
Unique ID                                : 266573444183906826703648558303076563075 (0xC88C2D87C9EE61A8E1E626EEC4DE3883)
Complete name                            : /home/zeiz/files/Avengers - Infinity War (2018) 4K LAT - ZeiZ/Avengers - Infinity War (2018) 4K LAT - ZeiZ.mkv
Format                                   : Matroska
Format version                           : Version 4 / Version 2
File size                                : 15.0 GiB
Duration                                 : 2 h 29 min
Overall bit rate                         : 14.4 Mb/s
Movie name                               : Avengers - Infinity War (2018) 4K LAT - ZeiZ
Encoded date                             : UTC 2018-08-08 20:47:30
Writing application                      : mkvmerge v9.9.0 ('Pick Up') 64bit
Writing library                          : libebml v1.3.4 + libmatroska v1.4.5
Attachments                              : Avengers - Infinity War (2018) 4K LAT - ZeiZ.jpg

Video
ID                                       : 1
Format                                   : HEVC
Format/Info                              : High Efficiency Video Coding
Commercial name                          : HDR10
Format profile                           : Main [email protected]@High
Codec ID                                 : V_MPEGH/ISO/HEVC
Duration                                 : 2 h 29 min
Bit rate                                 : 13.1 Mb/s
Width                                    : 3 840 pixels
Height                                   : 1 608 pixels
Display aspect ratio                     : 2.40:1
Frame rate mode                          : Constant
Frame rate                               : 23.976 (24000/1001) FPS
Color space                              : YUV
Chroma subsampling                       : 4:2:0 (Type 2)
Bit depth                                : 10 bits
Bits/(Pixel*Frame)                       : 0.089
Stream size                              : 13.7 GiB (91%)
Title                                    : Avengers - Infinity War (2018) 4K LAT - ZeiZ
Writing library                          : x265 2.8+24-289b8a3730ae:[Windows][GCC 7.3.0][64 bit] 10bit
Encoding settings                        : cpuid=1111039 / frame-threads=16 / numa-pools=24,24,24,24 / wpp / no-pmode / no-pme / no-psnr / no-ssim / log-level=2 / input-csp=1 / input-res=3840x1608 / interlace=0 / total-frames=0 / level-idc=51 / high-tier=1 / uhd-bd=0 / ref=3 / no-allow-non-conformance / repeat-headers / annexb / aud / hrd / info / hash=0 / no-temporal-layers / no-open-gop / min-keyint=1 / keyint=24 / gop-lookahead=0 / bframes=4 / b-adapt=2 / b-pyramid / bframe-bias=0 / rc-lookahead=25 / lookahead-slices=4 / scenecut=40 / radl=0 / no-intra-refresh / ctu=64 / min-cu-size=8 / no-rect / no-amp / max-tu-size=32 / tu-inter-depth=1 / tu-intra-depth=1 / limit-tu=0 / rdoq-level=0 / dynamic-rd=0.00 / no-ssim-rd / signhide / no-tskip / nr-intra=0 / nr-inter=0 / no-constrained-intra / strong-intra-smoothing / max-merge=2 / limit-refs=3 / no-limit-modes / me=1 / subme=2 / merange=57 / temporal-mvp / weightp / no-weightb / no-analyze-src-pics / deblock=0:0 / no-sao / no-sao-non-deblock / rd=3 / no-early-skip / rskip / no-fast-intra / no-tskip-fast / no-cu-lossless / no-b-intra / no-splitrd-skip / rdpenalty=0 / psy-rd=2.00 / psy-rdoq=0.00 / no-rd-refine / no-lossless / cbqpoffs=0 / crqpoffs=0 / rc=crf / crf=16.0 / qcomp=0.60 / qpstep=4 / stats-write=0 / stats-read=0 / vbv-maxrate=160000 / vbv-bufsize=160000 / vbv-init=0.9 / crf-max=0.0 / crf-min=0.0 / ipratio=1.40 / pbratio=1.30 / aq-mode=1 / aq-strength=1.00 / cutree / zone-count=0 / no-strict-cbr / qg-size=32 / no-rc-grain / qpmax=69 / qpmin=0 / no-const-vbv / sar=1 / overscan=0 / videoformat=5 / range=0 / colorprim=9 / transfer=16 / colormatrix=9 / chromaloc=1 / chromaloc-top=2 / chromaloc-bottom=2 / display-window=0 / master-display=G(13250,34500)B(7500,3000)R(34000,16000)WP(15635,16450)L(10000000,01) / max-cll=0,0 / min-luma=0 / max-luma=1023 / log2-max-poc-lsb=8 / vui-timing-info / vui-hrd-info / slices=1 / opt-qp-pps / opt-ref-list-length-pps / no-multi-pass-opt-rps / scenecut-bias=0.05 / no-opt-cu-delta-qp / no-aq-motion / hdr / hdr-opt / no-dhdr10-opt / no-idr-recovery-sei / analysis-reuse-level=5 / scale-factor=0 / refine-intra=0 / refine-inter=0 / refine-mv=0 / no-limit-sao / ctu-info=0 / no-lowpass-dct / refine-mv-type=0 / copy-pic=1 / max-ausize-factor=1.0 / no-dynamic-refine / no-single-sei
Language                                 : English
Default                                  : Yes
Forced                                   : No
Color range                              : Limited
Color primaries                          : BT.2020
Transfer characteristics                 : PQ
Matrix coefficients                      : BT.2020 non-constant
Mastering display color primaries        : BT.709
Mastering display luminance              : min: 0.0001 cd/m2, max: 1000 cd/m2

Audio #1
ID                                       : 2
Format                                   : AC-3
Format/Info                              : Audio Coding 3
Codec ID                                 : A_AC3
Duration                                 : 2 h 29 min
Bit rate mode                            : Constant
Bit rate                                 : 640 kb/s
Channel(s)                               : 6 channels
Channel positions                        : Front: L C R, Side: L R, LFE
Sampling rate                            : 48.0 kHz
Frame rate                               : 31.250 FPS (1536 SPF)
Bit depth                                : 16 bits
Compression mode                         : Lossy
Stream size                              : 684 MiB (4%)
Title                                    : Latino
Language                                 : Latin
Service kind                             : Complete Main
Default                                  : Yes
Forced                                   : Yes

Audio #2
ID                                       : 3
Format                                   : AC-3
Format/Info                              : Audio Coding 3
Codec ID                                 : A_AC3
Duration                                 : 2 h 29 min
Bit rate mode                            : Constant
Bit rate                                 : 640 kb/s
Channel(s)                               : 6 channels
Channel positions                        : Front: L C R, Side: L R, LFE
Sampling rate                            : 48.0 kHz
Frame rate                               : 31.250 FPS (1536 SPF)
Bit depth                                : 16 bits
Compression mode                         : Lossy
Delay relative to video                  : 32 ms
Stream size                              : 684 MiB (4%)
Title                                    : Inglés
Language                                 : English
Service kind                             : Complete Main
Default                                  : No
Forced                                   : No

Text #1
ID                                       : 4
Format                                   : UTF-8
Codec ID                                 : S_TEXT/UTF8
Codec ID/Info                            : UTF-8 Plain Text
Duration                                 : 2 h 29 min
Bit rate                                 : 0 b/s
Count of elements                        : 9
Stream size                              : 202 Bytes (0%)
Title                                    : www.alt-torrent.com
Language                                 : Latin
Default                                  : Yes
Forced                                   : Yes

Text #2
ID                                       : 5
Format                                   : UTF-8
Codec ID                                 : S_TEXT/UTF8
Codec ID/Info                            : UTF-8 Plain Text
Duration                                 : 2 h 29 min
Bit rate                                 : 38 b/s
Count of elements                        : 1574
Stream size                              : 42.6 KiB (0%)
Title                                    : Latino
Language                                 : Latin
Default                                  : No
Forced                                   : No

BitRate : 14.4 Mb/s
Audio Latino : AC3 5.1
Audio Inglés : AC3 5.1

* Chrome esta marcando los .torrent como archivos peligrosos,
Descarguenlos con confianza, son los mismos torrent de siempre.



Calidad Versión Atributo Tamaño link
BR-RIP 1080p [Extras] 5.91 GB avengers-infinity-war-extras-2018-1080p-eng.html
BR-RIP 1080p [Small] 3.07 GB avengers-infinity-war-small-2018-1080p-lat.html
BR-RIP 1080p [60fps] 11.16 GB avengers-infinity-war-60fps-2018-1080p-lat.html
BR-RIP 1080p 3D 18.32 GB avengers-infinity-war-2018-3d-lat.html
BLURAY 1080p 44 GB avengers-infinity-war-2018-bluray-lat.html
FullHD 1080p 12.7 GB avengers-infinity-war-2018-fullhd-lat.html
FullHD 1080p [Open Matte] 7.55 GB avengers-infinity-war-open-matte-2018-fullhd-lat.html
WEBDL 1080p 5.4 GB avengers-infinity-war-2018-webdl-lat.html