8.5/10
612.147
9.5/10
73

Alt-torrent Películas con audio latino para ver y compartir

Vengadores: Infinity War seguirá la lucha de los superhéroes de Marvel contra el mayor villano al que se han enfrentado nunca: Thanos. Su único objetivo será detener a este poderoso antagonista e impedir que se haga con el control de la galaxia. De nuevo veremos al grupo formado por Iron Man, Capitán América, Viuda negra, Ant-Man, Ojo de Halcón, Thor y Hulk, entre otros. En su nueva e impactante aventura, las Gemas del Infinito estarán en juego, unos querrán protegerlas y otros controlarlas, ¿quién ganará?

Título original:
Avengers: Infinity War
Año:
2018
Duración:
149 min
País:
USA
Director:
Anthony Russo, Joe Russo
Escritor:
Christopher Markus (screenplay by), Stephen McFeely (screenplay by), Stan Lee (based on the Marvel comics by), Jack Kirby (based on the Marvel comics by), Joe Simon (Captain America created by), Jack Kirby (Captain America created by), Steve Englehart (Star-Lord created by), Steve Gan (Star-Lord created by), Bill Mantlo (Rocket Raccoon created by), Keith Giffen (Rocket Raccoon created by), Jim Starlin (Thanos, Gamora and Drax created by), Stan Lee (Groot created by), Larry Lieber (Groot created by), Jack Kirby (Groot created by), Steve Englehart (Mantis created by), Don Heck (Mantis created by)
Reparto:
Robert Downey Jr., Chris Hemsworth, Mark Ruffalo, Chris Evans
Productora:
Walt Disney Pictures,Marvel Studios
Género:
Aventura,Ciencia ficción,Fantasía,Acción
General
ID                                       : 0 (0x0)
Complete name                            : /home/zeiz/files/Avengers - Infinity War (2018) BLURAY LAT - ZeiZ/BDMV/STREAM/00801.m2ts
Format                                   : BDAV
Format/Info                              : Blu-ray Video
File size                                : 36.3 GiB
Duration                                 : 2 h 29 min
Overall bit rate mode                    : Variable
Overall bit rate                         : 34.8 Mb/s
Maximum Overall bit rate                 : 48.0 Mb/s

Video
ID                                       : 4113 (0x1011)
Menu ID                                  : 1 (0x1)
Format                                   : AVC
Format/Info                              : Advanced Video Codec
Format profile                           : [email protected]
Format settings                          : CABAC / 4 Ref Frames
Format settings, CABAC                   : Yes
Format settings, ReFrames                : 4 frames
Codec ID                                 : 27
Duration                                 : 2 h 29 min
Bit rate mode                            : Variable
Maximum bit rate                         : 36.0 Mb/s
Width                                    : 1 920 pixels
Height                                   : 1 080 pixels
Display aspect ratio                     : 16:9
Frame rate                               : 23.976 (24000/1001) FPS
Color space                              : YUV
Chroma subsampling                       : 4:2:0
Bit depth                                : 8 bits
Scan type                                : Progressive

Audio #1
ID                                       : 4352 (0x1100)
Menu ID                                  : 1 (0x1)
Format                                   : DTS
Format/Info                              : Digital Theater Systems
Format profile                           : MA / Core
Muxing mode                              : Stream extension
Codec ID                                 : 134
Duration                                 : 2 h 29 min
Bit rate mode                            : Variable / Constant
Bit rate                                 : Unknown / 1 509 kb/s
Channel(s)                               : 8 channels / 6 channels
Channel positions                        : Front: L C R, Side: L R, Back: L R, LFE / Front: L C R, Side: L R, LFE
Sampling rate                            : 48.0 kHz
Frame rate                               : 93.750 FPS (512 SPF)
Bit depth                                : 24 bits
Compression mode                         : Lossless / Lossy

Audio #2
ID                                       : 4353 (0x1101)
Menu ID                                  : 1 (0x1)
Format                                   : AC-3
Format/Info                              : Audio Coding 3
Codec ID                                 : 129
Duration                                 : 2 h 29 min
Bit rate mode                            : Constant
Bit rate                                 : 320 kb/s
Channel(s)                               : 2 channels
Channel positions                        : Front: L R
Sampling rate                            : 48.0 kHz
Frame rate                               : 31.250 FPS (1536 SPF)
Bit depth                                : 16 bits
Compression mode                         : Lossy
Stream size                              : 342 MiB (1%)
Service kind                             : Complete Main

Audio #3
ID                                       : 4354 (0x1102)
Menu ID                                  : 1 (0x1)
Format                                   : AC-3
Format/Info                              : Audio Coding 3
Codec ID                                 : 129
Duration                                 : 2 h 29 min
Bit rate mode                            : Constant
Bit rate                                 : 640 kb/s
Channel(s)                               : 6 channels
Channel positions                        : Front: L C R, Side: L R, LFE
Sampling rate                            : 48.0 kHz
Frame rate                               : 31.250 FPS (1536 SPF)
Bit depth                                : 16 bits
Compression mode                         : Lossy
Stream size                              : 684 MiB (2%)
Service kind                             : Complete Main

Audio #4
ID                                       : 4355 (0x1103)
Menu ID                                  : 1 (0x1)
Format                                   : AC-3
Format/Info                              : Audio Coding 3
Codec ID                                 : 129
Duration                                 : 2 h 29 min
Bit rate mode                            : Constant
Bit rate                                 : 640 kb/s
Channel(s)                               : 6 channels
Channel positions                        : Front: L C R, Side: L R, LFE
Sampling rate                            : 48.0 kHz
Frame rate                               : 31.250 FPS (1536 SPF)
Bit depth                                : 16 bits
Compression mode                         : Lossy
Stream size                              : 684 MiB (2%)
Service kind                             : Complete Main

Audio #5
ID                                       : 4356 (0x1104)
Menu ID                                  : 1 (0x1)
Format                                   : AC-3
Format/Info                              : Audio Coding 3
Codec ID                                 : 129
Duration                                 : 2 h 29 min
Bit rate mode                            : Constant
Bit rate                                 : 640 kb/s
Channel(s)                               : 6 channels
Channel positions                        : Front: L C R, Side: L R, LFE
Sampling rate                            : 48.0 kHz
Frame rate                               : 31.250 FPS (1536 SPF)
Bit depth                                : 16 bits
Compression mode                         : Lossy
Stream size                              : 684 MiB (2%)
Service kind                             : Complete Main

Audio #6
ID                                       : 4357 (0x1105)
Menu ID                                  : 1 (0x1)
Format                                   : AC-3
Format/Info                              : Audio Coding 3
Codec ID                                 : 129
Duration                                 : 2 h 29 min
Bit rate mode                            : Constant
Bit rate                                 : 192 kb/s
Channel(s)                               : 2 channels
Channel positions                        : Front: L R
Sampling rate                            : 48.0 kHz
Frame rate                               : 31.250 FPS (1536 SPF)
Bit depth                                : 16 bits
Compression mode                         : Lossy
Stream size                              : 205 MiB (1%)
Service kind                             : Complete Main

Text #1
ID                                       : 4608 (0x1200)
Menu ID                                  : 1 (0x1)
Format                                   : PGS
Codec ID                                 : 144

Text #2
ID                                       : 4609 (0x1201)
Menu ID                                  : 1 (0x1)
Format                                   : PGS
Codec ID                                 : 144

Text #3
ID                                       : 4610 (0x1202)
Menu ID                                  : 1 (0x1)
Format                                   : PGS
Codec ID                                 : 144

Text #4
ID                                       : 4611 (0x1203)
Menu ID                                  : 1 (0x1)
Format                                   : PGS
Codec ID                                 : 144

Text #5
ID                                       : 4612 (0x1204)
Menu ID                                  : 1 (0x1)
Format                                   : PGS
Codec ID                                 : 144
Duration                                 : 2 h 29 min
Delay relative to video                  : 5 s 171 ms

Text #6
ID                                       : 4613 (0x1205)
Menu ID                                  : 1 (0x1)
Format                                   : PGS
Codec ID                                 : 144
Duration                                 : 2 h 29 min
Delay relative to video                  : 5 s 171 ms

Text #7
ID                                       : 4614 (0x1206)
Menu ID                                  : 1 (0x1)
Format                                   : PGS
Codec ID                                 : 144
Duration                                 : 2 h 29 min
Delay relative to video                  : 5 s 171 ms

Text #8
ID                                       : 4615 (0x1207)
Menu ID                                  : 1 (0x1)
Format                                   : PGS
Codec ID                                 : 144
Duration                                 : 2 h 29 min
Delay relative to video                  : 5 s 171 ms

Text #9
ID                                       : 4616 (0x1208)
Menu ID                                  : 1 (0x1)
Format                                   : PGS
Codec ID                                 : 144

Text #10
ID                                       : 4617 (0x1209)
Menu ID                                  : 1 (0x1)
Format                                   : PGS
Codec ID                                 : 144

Text #11
ID                                       : 4618 (0x120A)
Menu ID                                  : 1 (0x1)
Format                                   : PGS
Codec ID                                 : 144

Text #12
ID                                       : 4619 (0x120B)
Menu ID                                  : 1 (0x1)
Format                                   : PGS
Codec ID                                 : 144

BitRate : Variable
Audio Latino : AC3 5.1
Audio Inglés : AC3 5.1

* Chrome esta marcando los .torrent como archivos peligrosos,
Descarguenlos con confianza, son los mismos torrent de siempre.



Calidad Versión Atributo Tamaño link
BR-RIP 1080p [Extras] 5.91 GB avengers-infinity-war-extras-2018-1080p-eng.html
BR-RIP 1080p [Small] 3.07 GB avengers-infinity-war-small-2018-1080p-lat.html
BR-RIP 1080p [60fps] 11.16 GB avengers-infinity-war-60fps-2018-1080p-lat.html
BR-RIP 1080p 3D 18.32 GB avengers-infinity-war-2018-3d-lat.html
4K 2160p 15.04 GB avengers-infinity-war-2018-4k-lat.html
FullHD 1080p 12.7 GB avengers-infinity-war-2018-fullhd-lat.html
FullHD 1080p [Open Matte] 7.55 GB avengers-infinity-war-open-matte-2018-fullhd-lat.html
WEBDL 1080p 5.4 GB avengers-infinity-war-2018-webdl-lat.html