8.5/10
612.147
9.4/10
245

Alt-torrent Películas con audio latino para ver y compartir

Vengadores: Infinity War seguirá la lucha de los superhéroes de Marvel contra el mayor villano al que se han enfrentado nunca: Thanos. Su único objetivo será detener a este poderoso antagonista e impedir que se haga con el control de la galaxia. De nuevo veremos al grupo formado por Iron Man, Capitán América, Viuda negra, Ant-Man, Ojo de Halcón, Thor y Hulk, entre otros. En su nueva e impactante aventura, las Gemas del Infinito estarán en juego, unos querrán protegerlas y otros controlarlas, ¿quién ganará?

Título original:
Avengers: Infinity War
Año:
2018
Duración:
149 min
País:
USA
Director:
Anthony Russo, Joe Russo
Escritor:
Christopher Markus (screenplay by), Stephen McFeely (screenplay by), Stan Lee (based on the Marvel comics by), Jack Kirby (based on the Marvel comics by), Joe Simon (Captain America created by), Jack Kirby (Captain America created by), Steve Englehart (Star-Lord created by), Steve Gan (Star-Lord created by), Bill Mantlo (Rocket Raccoon created by), Keith Giffen (Rocket Raccoon created by), Jim Starlin (Thanos, Gamora and Drax created by), Stan Lee (Groot created by), Larry Lieber (Groot created by), Jack Kirby (Groot created by), Steve Englehart (Mantis created by), Don Heck (Mantis created by)
Reparto:
Robert Downey Jr., Chris Hemsworth, Mark Ruffalo, Chris Evans
Productora:
Walt Disney Pictures,Marvel Studios
Género:
Aventura,Ciencia ficción,Fantasía,Acción
General
Unique ID                                : 232144081412800774565152710150803146125 (0xAEA552E347B0788E10EE93ACFBABC58D)
Complete name                            : /home/zeiz/files/Avengers - Infinity War (2018) WEBDL LAT - ZeiZ/Avengers - Infinity War (2018) WEBDL LAT - ZeiZ.mkv
Format                                   : Matroska
Format version                           : Version 4 / Version 2
File size                                : 5.40 GiB
Duration                                 : 2 h 29 min
Overall bit rate                         : 5 160 kb/s
Movie name                               : Avengers - Infinity War (2018) WEBDL LAT - ZeiZ
Encoded date                             : UTC 2018-07-30 17:31:38
Writing application                      : mkvmerge v9.9.0 ('Pick Up') 64bit
Writing library                          : libebml v1.3.4 + libmatroska v1.4.5
Attachments                              : Avengers - Infinity War (2018) WEBDL LAT - ZeiZ.jpg

Video
ID                                       : 1
Format                                   : AVC
Format/Info                              : Advanced Video Codec
Format profile                           : [email protected]
Format settings                          : CABAC / 5 Ref Frames
Format settings, CABAC                   : Yes
Format settings, ReFrames                : 5 frames
Codec ID                                 : V_MPEG4/ISO/AVC
Duration                                 : 2 h 29 min
Bit rate                                 : 4 520 kb/s
Width                                    : 1 920 pixels
Height                                   : 804 pixels
Display aspect ratio                     : 2.40:1
Frame rate mode                          : Constant
Frame rate                               : 23.976 FPS
Color space                              : YUV
Chroma subsampling                       : 4:2:0
Bit depth                                : 8 bits
Scan type                                : Progressive
Bits/(Pixel*Frame)                       : 0.122
Stream size                              : 4.73 GiB (88%)
Title                                    : Avengers - Infinity War (2018) WEBDL LAT - ZeiZ
Language                                 : English
Default                                  : Yes
Forced                                   : No
Color range                              : Limited
Color primaries                          : BT.709
Transfer characteristics                 : BT.709
Matrix coefficients                      : BT.709

Audio #1
ID                                       : 2
Format                                   : AC-3
Format/Info                              : Audio Coding 3
Codec ID                                 : A_AC3
Duration                                 : 2 h 29 min
Bit rate mode                            : Constant
Bit rate                                 : 256 kb/s
Channel(s)                               : 2 channels
Channel positions                        : Front: L R
Sampling rate                            : 48.0 kHz
Frame rate                               : 31.250 FPS (1536 SPF)
Bit depth                                : 16 bits
Compression mode                         : Lossy
Delay relative to video                  : -43 ms
Stream size                              : 273 MiB (5%)
Title                                    : Latino
Language                                 : Latin
Service kind                             : Complete Main
Default                                  : Yes
Forced                                   : Yes

Audio #2
ID                                       : 3
Format                                   : AC-3
Format/Info                              : Audio Coding 3
Codec ID                                 : A_AC3
Duration                                 : 2 h 29 min
Bit rate mode                            : Constant
Bit rate                                 : 384 kb/s
Channel(s)                               : 6 channels
Channel positions                        : Front: L C R, Side: L R, LFE
Sampling rate                            : 48.0 kHz
Frame rate                               : 31.250 FPS (1536 SPF)
Bit depth                                : 16 bits
Compression mode                         : Lossy
Delay relative to video                  : -43 ms
Stream size                              : 410 MiB (7%)
Title                                    : Inglés
Language                                 : English
Service kind                             : Complete Main
Default                                  : No
Forced                                   : No

Text #1
ID                                       : 4
Format                                   : UTF-8
Codec ID                                 : S_TEXT/UTF8
Codec ID/Info                            : UTF-8 Plain Text
Duration                                 : 2 h 29 min
Bit rate                                 : 0 b/s
Count of elements                        : 9
Stream size                              : 202 Bytes (0%)
Title                                    : www.alt-torrent.com
Language                                 : Latin
Default                                  : Yes
Forced                                   : Yes

Text #2
ID                                       : 5
Format                                   : UTF-8
Codec ID                                 : S_TEXT/UTF8
Codec ID/Info                            : UTF-8 Plain Text
Duration                                 : 2 h 29 min
Bit rate                                 : 38 b/s
Count of elements                        : 1574
Stream size                              : 42.6 KiB (0%)
Title                                    : Latino
Language                                 : Latin
Default                                  : No
Forced                                   : No

BitRate : 5 160 kb/s
Audio Latino : AC3 2.0
Audio Inglés : AC3 2.0

* Chrome esta marcando los .torrent como archivos peligrosos,
Descarguenlos con confianza, son los mismos torrent de siempre.



Calidad Versión Atributo Tamaño link
BR-RIP 1080p [Extras] 5.91 GB avengers-infinity-war-extras-2018-1080p-eng.html
BR-RIP 1080p [Small] 3.07 GB avengers-infinity-war-small-2018-1080p-lat.html
BR-RIP 1080p [60fps] 11.16 GB avengers-infinity-war-60fps-2018-1080p-lat.html
BR-RIP 1080p 3D 18.32 GB avengers-infinity-war-2018-3d-lat.html
4K 2160p 15.04 GB avengers-infinity-war-2018-4k-lat.html
BLURAY 1080p 44 GB avengers-infinity-war-2018-bluray-lat.html
FullHD 1080p 12.7 GB avengers-infinity-war-2018-fullhd-lat.html
FullHD 1080p [Open Matte] 7.55 GB avengers-infinity-war-open-matte-2018-fullhd-lat.html