7.3/10
6.286
5.2/10
12

Alt-torrent Películas con audio latino para ver y compartir

¿Cansado de los vídeos de gatitos que pueblan internet? Bad Cat tiene la solución a esta sobredosis de monerías, proponiendo una adaptación del cómic underground más popular en Turquía. Sus creadores definen al protagonista como un cruce entre Garfield y Fritz el Gato, envuelto en un embrollo al más puro estilo Tarantino.

Título original:
Kötü Kedi Şerafettin
Año:
2016
Duración:
86 min
País:
Turkey
Director:
Mehmet Kurtulus, Ayse Ünal
Escritor:
Levent Kazak (screenplay), Bülent Üstün (based on comics by), Bülent Üstün (script), Bülent Üstün (story)
Reparto:
Ugur Yücel, Demet Evgar, Okan Yalabik, Güven Kiraç
Productora:
Kare Kare Film Yapim,Anima Istanbul
Género:
Comedia,Animación,Acción
General
Unique ID                                : 296536870453325267621910979700763586734 (0xDF16EC80EA5B68857F3C095BC10EF0AE)
Complete name                            : /home/zeiz/files/Bad Cat (2016) 1080p LAT - ZeiZ/Bad Cat (2016) 1080p LAT - ZeiZ.mkv
Format                                   : Matroska
Format version                           : Version 4 / Version 2
File size                                : 2.29 GiB
Duration                                 : 1 h 25 min
Overall bit rate                         : 3 826 kb/s
Movie name                               : Bad Cat (2016) 1080p LAT - ZeiZ
Encoded date                             : UTC 2018-09-12 03:14:48
Writing application                      : mkvmerge v9.9.0 ('Pick Up') 64bit
Writing library                          : libebml v1.3.4 + libmatroska v1.4.5
Attachments                              : Bad Cat (2016) 1080p LAT - ZeiZ.jpg

Video
ID                                       : 1
Format                                   : AVC
Format/Info                              : Advanced Video Codec
Format profile                           : [email protected]
Format settings                          : CABAC / 5 Ref Frames
Format settings, CABAC                   : Yes
Format settings, ReFrames                : 5 frames
Codec ID                                 : V_MPEG4/ISO/AVC
Duration                                 : 1 h 25 min
Bit rate                                 : 3 500 kb/s
Width                                    : 1 920 pixels
Height                                   : 804 pixels
Display aspect ratio                     : 2.40:1
Frame rate mode                          : Constant
Frame rate                               : 24.000 FPS
Color space                              : YUV
Chroma subsampling                       : 4:2:0
Bit depth                                : 8 bits
Scan type                                : Progressive
Bits/(Pixel*Frame)                       : 0.094
Stream size                              : 2.06 GiB (90%)
Title                                    : Bad Cat (2016) 1080p LAT - ZeiZ
Writing library                          : x264 core 155 r2893 b00bcaf
Encoding settings                        : cabac=1 / ref=5 / deblock=1:0:0 / analyse=0x3:0x113 / me=hex / subme=8 / psy=1 / psy_rd=1.00:0.00 / mixed_ref=1 / me_range=16 / chroma_me=1 / trellis=2 / 8x8dct=1 / cqm=0 / deadzone=21,11 / fast_pskip=1 / chroma_qp_offset=-2 / threads=25 / lookahead_threads=4 / sliced_threads=0 / nr=0 / decimate=1 / interlaced=0 / bluray_compat=0 / constrained_intra=0 / bframes=3 / b_pyramid=2 / b_adapt=1 / b_bias=0 / direct=3 / weightb=1 / open_gop=0 / weightp=2 / keyint=240 / keyint_min=24 / scenecut=40 / intra_refresh=0 / rc_lookahead=50 / rc=abr / mbtree=1 / bitrate=3500 / ratetol=1.0 / qcomp=0.60 / qpmin=0 / qpmax=69 / qpstep=4 / vbv_maxrate=62500 / vbv_bufsize=78125 / nal_hrd=none / filler=0 / ip_ratio=1.40 / aq=1:1.00
Language                                 : English
Default                                  : Yes
Forced                                   : No
Color range                              : Limited
Color primaries                          : BT.709
Transfer characteristics                 : BT.709
Matrix coefficients                      : BT.709

Audio
ID                                       : 2
Format                                   : AC-3
Format/Info                              : Audio Coding 3
Codec ID                                 : A_AC3
Duration                                 : 1 h 25 min
Bit rate mode                            : Constant
Bit rate                                 : 384 kb/s
Channel(s)                               : 6 channels
Channel positions                        : Front: L C R, Side: L R, LFE
Sampling rate                            : 48.0 kHz
Frame rate                               : 31.250 FPS (1536 SPF)
Bit depth                                : 16 bits
Compression mode                         : Lossy
Stream size                              : 235 MiB (10%)
Title                                    : Latino
Language                                 : Latin
Service kind                             : Complete Main
Default                                  : Yes
Forced                                   : No

Text
ID                                       : 4
Format                                   : UTF-8
Codec ID                                 : S_TEXT/UTF8
Codec ID/Info                            : UTF-8 Plain Text
Duration                                 : 5 s 0 ms
Bit rate                                 : 44 b/s
Count of elements                        : 1
Stream size                              : 28.0 Bytes (0%)
Title                                    : www.alt-torrent.com
Language                                 : Latin
Default                                  : Yes
Forced                                   : Yes

BitRate : 3 826 kb/s
Audio Latino : AC3 5.1

* Chrome esta marcando los .torrent como archivos peligrosos,
Descarguenlos con confianza, son los mismos torrent de siempre.



Calidad Versión Atributo Tamaño link
BR-RIP 1080p 3.21 GB bad-cat-1080p-2016-br-rip-lat.html