7.2/10
2.773
9.5/10
2

Alt-torrent Películas con audio latino para ver y compartir

Batman, Batgirl y Robin forjan una alianza con Las Tortugas Ninja para luchar contra el gran enemigo de estas últimas, Shredder, quien aparentemente ha formado equipo con Ra's Al Ghul y la Liga de Asesinos para poner en jaque a Gotham.

Título original:
Batman vs. Teenage Mutant Ninja Turtles
Año:
2019
Duración:
84 min
País:
USA
Director:
Jake Castorena
Escritor:
Marly Halpern-Graser, James Tynion IV (based on the comic book by), Freddie Williams II (based on the comic book by), Bob Kane (Batman created by), Bill Finger (Batman created by), Kevin Eastman (Teenage Mutant Ninja Turtles created by), Peter Laird (Teenage Mutant Ninja Turtles created by), Paul Dini (Harley Quinn created by), Bruce Timm (Harley Quinn created by), Denny O'Neil (Ra's al Ghul created by), Neal Adams (Ra's al Ghul created by), Chuck Dixon (Bane created by), Doug Moench (Bane created by), Graham Nolan (Bane created by)
Reparto:
Troy Baker, Eric Bauza, Darren Criss, Kyle Mooney
Productora:
Warner Bros. Animation,DC Entertainment,Nickelodeon Animation Studio,DC Comics
Género:
Acción,Animación,Familia
Format                                   : Matroska
Format version                           : Version 4
File size                                : 2.04 GiB
Duration                                 : 1 h 27 min
Overall bit rate                         : 3 360 kb/s
Movie name                               : www.alt.torrent.com
Encoded date                             : UTC 2019-06-08 01:13:48
Writing application                      : mkvmerge v27.0.0 ('Metropolis') 64-bit
Writing library                          : libebml v1.3.6 + libmatroska v1.4.9

Video
ID                                       : 1
Format                                   : AVC
Format/Info                              : Advanced Video Codec
Format profile                           : [email protected]
Format settings                          : CABAC / 4 Ref Frames
Format settings, CABAC                   : Yes
Format settings, ReFrames                : 4 frames
Codec ID                                 : V_MPEG4/ISO/AVC
Duration                                 : 1 h 27 min
Bit rate                                 : 2 334 kb/s
Width                                    : 1 920 pixels
Height                                   : 1 080 pixels
Display aspect ratio                     : 16:9
Frame rate mode                          : Constant
Frame rate                               : 23.976 (24000/1001) FPS
Color space                              : YUV
Chroma subsampling                       : 4:2:0
Bit depth                                : 8 bits
Scan type                                : Progressive
Bits/(Pixel*Frame)                       : 0.047
Stream size                              : 1.42 GiB (69%)
Title                                    : www.alt.torrent.com
Writing library                          : x264 core 157 r2935 545de2f
Encoding settings                        : cabac=1 / ref=4 / deblock=1:0:0 / analyse=0x3:0x133 / me=tesa / subme=11 / psy=1 / psy_rd=1.00:0.00 / mixed_ref=1 / me_range=24 / chroma_me=1 / trellis=2 / 8x8dct=1 / cqm=0 / deadzone=21,11 / fast_pskip=0 / chroma_qp_offset=-2 / threads=34 / lookahead_threads=8 / sliced_threads=0 / nr=0 / decimate=1 / interlaced=0 / bluray_compat=0 / constrained_intra=0 / bframes=16 / b_pyramid=2 / b_adapt=2 / b_bias=0 / direct=3 / weightb=1 / open_gop=0 / weightp=2 / keyint=240 / keyint_min=24 / scenecut=40 / intra_refresh=0 / rc_lookahead=60 / rc=crf / mbtree=1 / crf=20.0 / qcomp=0.60 / qpmin=0 / qpmax=69 / qpstep=4 / vbv_maxrate=62500 / vbv_bufsize=78125 / crf_max=0.0 / nal_hrd=none / filler=0 / ip_ratio=1.40 / aq=1:1.00
Default                                  : Yes
Forced                                   : No
Color range                              : Limited
Color primaries                          : BT.709
Transfer characteristics                 : BT.709
Matrix coefficients                      : BT.709

Audio #1
ID                                       : 2
Format                                   : AC-3
Format/Info                              : Audio Coding 3
Commercial name                          : Dolby Digital
Codec ID                                 : A_AC3
Duration                                 : 1 h 27 min
Bit rate mode                            : Constant
Bit rate                                 : 640 kb/s
Channel(s)                               : 6 channels
Channel layout                           : L R C LFE Ls Rs
Sampling rate                            : 48.0 kHz
Frame rate                               : 31.250 FPS (1536 SPF)
Bit depth                                : 16 bits
Compression mode                         : Lossy
Stream size                              : 398 MiB (19%)
Title                                    : www.alt.torrent.com
Language                                 : Spanish
Service kind                             : Complete Main
Default                                  : Yes
Forced                                   : No

Audio #2
ID                                       : 3
Format                                   : AC-3
Format/Info                              : Audio Coding 3
Commercial name                          : Dolby Digital
Codec ID                                 : A_AC3
Duration                                 : 1 h 27 min
Bit rate mode                            : Constant
Bit rate                                 : 384 kb/s
Channel(s)                               : 6 channels
Channel layout                           : L R C LFE Ls Rs
Sampling rate                            : 48.0 kHz
Frame rate                               : 31.250 FPS (1536 SPF)
Bit depth                                : 16 bits
Compression mode                         : Lossy
Stream size                              : 239 MiB (11%)
Title                                    : www.alt.torrent.com
Language                                 : English
Service kind                             : Complete Main
Default                                  : No
Forced                                   : No

Text #1
ID                                       : 4
Format                                   : UTF-8
Codec ID                                 : S_TEXT/UTF8
Codec ID/Info                            : UTF-8 Plain Text
Duration                                 : 58 min 34 s
Bit rate                                 : 0 b/s
Count of elements                        : 13
Stream size                              : 255 Bytes (0%)
Title                                    : www.alt.torrent.com
Language                                 : Spanish
Default                                  : Yes
Forced                                   : No

Text #2
ID                                       : 5
Format                                   : UTF-8
Codec ID                                 : S_TEXT/UTF8
Codec ID/Info                            : UTF-8 Plain Text
Duration                                 : 1 h 22 min
Bit rate                                 : 52 b/s
Count of elements                        : 991
Stream size                              : 31.5 KiB (0%)
Title                                    : www.alt.torrent.com
Language                                 : Spanish
Default                                  : No
Forced                                   : No

BitRate : 3 360 kb/s
Audio Latino : AC3 5.1
Audio Inglés : AC3 5.1

* Chrome esta marcando los .torrent como archivos peligrosos,
Descarguenlos con confianza, son los mismos torrent de siempre.

 AMBOS AUDIOS FINALES
+ SUBTITULO SRT LATINO


Calidad Versión Atributo Tamaño link
WEBDL 1080p 3.5 GB batman-vs-teenage-mutant-ninja-turtles-1080p-2019-webdl-lat.html