7.2/10
4.134
8.2/10
10

Alt-torrent Películas con audio latino para ver y compartir

Batman, Batgirl y Robin forjan una alianza con Las Tortugas Ninja para luchar contra el gran enemigo de estas últimas, Shredder, quien aparentemente ha formado equipo con Ra's Al Ghul y la Liga de Asesinos para poner en jaque a Gotham.

Título original:
Batman vs. Teenage Mutant Ninja Turtles
Año:
2019
Duración:
84 min
País:
USA
Director:
Jake Castorena
Escritor:
Marly Halpern-Graser, James Tynion IV (based on the comic book by), Freddie Williams II (based on the comic book by), Bob Kane (Batman created by), Bill Finger (Batman created by), Kevin Eastman (Teenage Mutant Ninja Turtles created by), Peter Laird (Teenage Mutant Ninja Turtles created by), Paul Dini (Harley Quinn created by), Bruce Timm (Harley Quinn created by), Denny O'Neil (Ra's al Ghul created by), Neal Adams (Ra's al Ghul created by), Chuck Dixon (Bane created by), Doug Moench (Bane created by), Graham Nolan (Bane created by)
Reparto:
Troy Baker, Eric Bauza, Darren Criss, Kyle Mooney
Productora:
Warner Bros. Animation,DC Entertainment,Nickelodeon Animation Studio
Género:
Acción,Animación,Familia
Format                                   : Matroska
Format version                           : Version 4
File size                                : 3.50 GiB
Duration                                 : 1 h 27 min
Overall bit rate                         : 5 746 kb/s
Movie name                               : www.alt-torrent.com
Encoded date                             : UTC 2019-05-14 19:36:28
Writing application                      : mkvmerge v27.0.0 ('Metropolis') 64-bit
Writing library                          : libebml v1.3.6 + libmatroska v1.4.9

Video
ID                                       : 1
Format                                   : AVC
Format/Info                              : Advanced Video Codec
Format profile                           : [email protected]
Format settings                          : CABAC / 4 Ref Frames
Format settings, CABAC                   : Yes
Format settings, ReFrames                : 4 frames
Codec ID                                 : V_MPEG4/ISO/AVC
Duration                                 : 1 h 27 min
Bit rate                                 : 4 932 kb/s
Width                                    : 1 912 pixels
Height                                   : 1 072 pixels
Display aspect ratio                     : 16:9
Frame rate mode                          : Constant
Frame rate                               : 23.976 (23976/1000) FPS
Color space                              : YUV
Chroma subsampling                       : 4:2:0
Bit depth                                : 8 bits
Scan type                                : Progressive
Bits/(Pixel*Frame)                       : 0.100
Stream size                              : 3.00 GiB (86%)
Title                                    : www.alt-torrent.com
Language                                 : English
Default                                  : Yes
Forced                                   : No
Color range                              : Limited
Color primaries                          : BT.709
Transfer characteristics                 : BT.709
Matrix coefficients                      : BT.709

Audio #1
ID                                       : 2
Format                                   : AC-3
Format/Info                              : Audio Coding 3
Commercial name                          : Dolby Digital
Codec ID                                 : A_AC3
Duration                                 : 1 h 23 min
Bit rate mode                            : Constant
Bit rate                                 : 448 kb/s
Channel(s)                               : 6 channels
Channel layout                           : L R C LFE Ls Rs
Sampling rate                            : 48.0 kHz
Frame rate                               : 31.250 FPS (1536 SPF)
Bit depth                                : 16 bits
Compression mode                         : Lossy
Delay relative to video                  : -43 ms
Stream size                              : 267 MiB (7%)
Title                                    : www.alt-torrent.com
Language                                 : Spanish
Service kind                             : Complete Main
Default                                  : Yes
Forced                                   : No

Audio #2
ID                                       : 3
Format                                   : AC-3
Format/Info                              : Audio Coding 3
Commercial name                          : Dolby Digital
Codec ID                                 : A_AC3
Duration                                 : 1 h 27 min
Bit rate mode                            : Constant
Bit rate                                 : 384 kb/s
Channel(s)                               : 6 channels
Channel layout                           : L R C LFE Ls Rs
Sampling rate                            : 48.0 kHz
Frame rate                               : 31.250 FPS (1536 SPF)
Bit depth                                : 16 bits
Compression mode                         : Lossy
Delay relative to video                  : -43 ms
Stream size                              : 239 MiB (7%)
Title                                    : www.alt-torrent.com
Language                                 : English
Service kind                             : Complete Main
Default                                  : No
Forced                                   : No

Text
ID                                       : 4
Format                                   : UTF-8
Codec ID                                 : S_TEXT/UTF8
Codec ID/Info                            : UTF-8 Plain Text
Duration                                 : 1 h 22 min
Bit rate                                 : 52 b/s
Count of elements                        : 991
Stream size                              : 31.5 KiB (0%)
Title                                    : www.alt-torrent.com
Language                                 : Spanish
Default                                  : Yes
Forced                                   : No

BitRate : 5 746 kb/s
Audio Latino : AC3 5.1
Audio Inglés : AC3 5.1

* Chrome esta marcando los .torrent como archivos peligrosos,
Descarguenlos con confianza, son los mismos torrent de siempre.

 AMBOS AUDIOS FINALES
+ SUBTITULO SRT LATINO


Calidad Versión Atributo Tamaño link
FullHD 1080p 2.05 GB batman-vs-teenage-mutant-ninja-turtles-1080p-2019-fullhd-lat.html