7.3/10
32.561
9.0/10
3

Alt-torrent Películas para ver y compartir

Crónica sobre la adicción a la metanfetamina y el intento de recuperación y de salir de las drogas a través de los ojos de un padre que observa a su hijo mientras lucha contra la enfermedad de la drogodependencia.

Título original:
Beautiful Boy
Año:
2018
Duración:
120 min
País:
USA
Director:
Felix van Groeningen
Escritor:
Luke Davies (screenplay by), Felix van Groeningen (screenplay by), David Sheff (based on the book "Beautiful Boy" by), Nic Sheff (based on the book "Tweak" by)
Reparto:
Steve Carell, Timothée Chalamet, Maura Tierney, Christian Convery
Productora:
Plan B Entertainment,Big Indie Pictures
Género:
Drama
Beautiful Boy (2018) WEBDL [1080p] ENG

Format                      : Matroska
Format version              : Version 4 / Version 2
File size                   : 5.80 GiB
Duration                    : 2 h 0 min
Overall bit rate            : 6 909 kb/s
Movie name                  : www.alt-torrent.com - By FllorTV
Encoded date                : UTC 2019-01-10 15:07:12
Writing application         : mkvmerge v30.1.0 ('Forever And More') 64-bit
Writing library             : libebml v1.3.6 + libmatroska v1.4.9

Video
ID                          : 1
Format                      : AVC
Format/Info                 : Advanced Video Codec
Format profile              : [email protected]
Format settings             : CABAC / 4 Ref Frames
Format settings, CABAC      : Yes
Format settings, RefFrames  : 4 frames
Codec ID                    : V_MPEG4/ISO/AVC
Duration                    : 2 h 0 min
Bit rate                    : 6 523 kb/s
Width                       : 1 920 pixels
Height                      : 1 040 pixels
Display aspect ratio        : 1.85:1
Frame rate mode             : Constant
Frame rate                  : 23.976 (24000/1001) FPS
Color space                 : YUV
Chroma subsampling          : 4:2:0
Bit depth                   : 8 bits
Scan type                   : Progressive
Bits/(Pixel*Frame)          : 0.136
Stream size                 : 5.48 GiB (94%)
Title                       : www.alt-torrent.com - By FllorTV
Default                     : Yes
Forced                      : No
Color range                 : Limited
Color primaries             : BT.709
Transfer characteristics    : BT.709
Matrix coefficients         : BT.709

Audio
ID                          : 2
Format                      : AC-3
Format/Info                 : Audio Coding 3
Format settings, Endianness : Big
Codec ID                    : A_AC3
Duration                    : 2 h 0 min
Bit rate mode               : Constant
Bit rate                    : 384 kb/s
Channel(s)                  : 6 channels
Channel positions           : Front: L C R, Side: L R, LFE
Sampling rate               : 48.0 kHz
Frame rate                  : 31.250 FPS (1536 SPF)
Bit depth                   : 16 bits
Compression mode            : Lossy
Stream size                 : 330 MiB (6%)
Title                       : Ingles
Language                    : English
Service kind                : Complete Main
Default                     : Yes
Forced                      : No

Text
ID                          : 3
Format                      : UTF-8
Codec ID                    : S_TEXT/UTF8
Codec ID/Info               : UTF-8 Plain Text
Duration                    : 1 h 59 min
Bit rate                    : 56 b/s
Count of elements           : 1669
Stream size                 : 49.2 KiB (0%)
Title                       : Latino
Language                    : Spanish
Default                     : Yes
Forced                      : Yes

Menu
00:00:00.000                : en:Studio Logo
00:00:25.000                : en:What can I do to help him?
00:02:02.000                : en:Nic is missing again
00:06:55.000                : en:Title Sequence
00:07:11.000                : en:The Sheff's seek professional help
00:16:19.000                : en:Nic and David have a heart to heart
00:24:22.000                : en:Nic makes a big decision
00:31:22.000                : en:Relapse is a part of recovery
00:39:08.000                : en:David tries to understand however he can
00:46:08.000                : en:David is just trying to keep his family together
00:53:55.000                : en:I love you more than everything
01:00:13.000                : en:Nic tries an LA program
01:05:21.000                : en:Nic has a great weekend
01:15:35.000                : en:Nic's depression creeps back in
01:22:46.000                : en:David and Karen are having a hard time
01:35:31.000                : en:Sometimes a person needs tough love
01:41:08.000                : en:Miracles can happen
01:49:52.000                : en:Acknowledgement
01:50:27.000                : en:End Credits


BitRate : 6 909 kb/s
Audio Inglés : AC3 5.1

* Chrome esta marcando los .torrent como archivos peligrosos,
Descarguenlos con confianza, son los mismos torrent de siempre.