8.0/10
356.054
9.0/10
2

Alt-torrent Películas con audio latino para ver y compartir

Bohemian Rhapsody es una rotunda y sonora celebración de Queen, de su música y de su extraordinario cantante Freddie Mercury, que desafió estereotipos e hizo añicos tradiciones para convertirse en uno de los showmans más queridos del mundo. La película plasma el meteórico ascenso al olimpo de la música de la banda a través de sus icónicas canciones y su revolucionario sonido, su crisis cuando el estilo de vida de Mercury estuvo fuera de control, y su triunfal reunión en la víspera del Live Aid, en la que Mercury, mientras sufría una enfermedad que amenazaba su vida, lidera a la banda en uno de los conciertos de rock más grandes de la historia. Veremos cómo se cimentó el legado de una banda que siempre se pareció más a una familia, y que continúa inspirando a propios y extraños, soñadores y amantes de la música hasta nuestros días.

Título original:
Bohemian Rhapsody
Año:
2018
Duración:
134 min
País:
UK, USA
Director:
Bryan Singer
Escritor:
Anthony McCarten (story by), Peter Morgan (story by), Anthony McCarten (screenplay by)
Reparto:
Rami Malek, Lucy Boynton, Gwilym Lee, Ben Hardy
Productora:
GK Films,Regency Enterprises,Queen Films,Tribeca Productions,New Regency Pictures,20th Century Fox
Género:
Drama,Música
Format                                   : Matroska
Format version                           : Version 4
File size                                : 3.53 GiB
Duration                                 : 2 h 14 min
Overall bit rate                         : 3 759 kb/s
Movie name                               : www.alt-torrent.com - By FllorTV
Encoded date                             : UTC 2019-01-15 05:58:42
Writing application                      : mkvmerge v27.0.0 ('Metropolis') 64-bit
Writing library                          : libebml v1.3.6 + libmatroska v1.4.9

Video
ID                                       : 1
Format                                   : AVC
Format/Info                              : Advanced Video Codec
Format profile                           : [email protected]
Format settings                          : CABAC / 8 Ref Frames
Format settings, CABAC                   : Yes
Format settings, ReFrames                : 8 frames
Codec ID                                 : V_MPEG4/ISO/AVC
Duration                                 : 2 h 14 min
Bit rate                                 : 3 500 kb/s
Width                                    : 1 280 pixels
Height                                   : 540 pixels
Display aspect ratio                     : 2.35:1
Frame rate mode                          : Constant
Frame rate                               : 23.976 (24000/1001) FPS
Color space                              : YUV
Chroma subsampling                       : 4:2:0
Bit depth                                : 8 bits
Scan type                                : Progressive
Bits/(Pixel*Frame)                       : 0.211
Stream size                              : 3.29 GiB (93%)
Title                                    : www.alt-torrent.com
Writing library                          : x264 core 155 r2901
Encoding settings                        : cabac=1 / ref=8 / deblock=1:0:0 / analyse=0x3:0x133 / me=umh / subme=9 / psy=1 / psy_rd=1.00:0.00 / mixed_ref=0 / me_range=16 / chroma_me=1 / trellis=2 / 8x8dct=1 / cqm=0 / deadzone=21,11 / fast_pskip=1 / chroma_qp_offset=-2 / threads=17 / lookahead_threads=1 / sliced_threads=0 / nr=0 / decimate=1 / interlaced=0 / bluray_compat=0 / constrained_intra=0 / bframes=3 / b_pyramid=0 / b_adapt=2 / b_bias=0 / direct=3 / weightb=1 / open_gop=0 / weightp=2 / keyint=239 / keyint_min=23 / scenecut=40 / intra_refresh=0 / rc_lookahead=60 / rc=2pass / mbtree=1 / bitrate=3500 / ratetol=1.0 / qcomp=0.60 / qpmin=10 / qpmax=69 / qpstep=4 / cplxblur=20.0 / qblur=0.5 / vbv_maxrate=7000 / vbv_bufsize=24000 / nal_hrd=none / filler=0 / ip_ratio=1.40 / aq=3:1.00
Default                                  : Yes
Forced                                   : No

Audio #1
ID                                       : 2
Format                                   : AC-3
Format/Info                              : Audio Coding 3
Commercial name                          : Dolby Digital
Codec ID                                 : A_AC3
Duration                                 : 2 h 14 min
Bit rate mode                            : Constant
Bit rate                                 : 128 kb/s
Channel(s)                               : 2 channels
Channel layout                           : L R
Sampling rate                            : 48.0 kHz
Frame rate                               : 31.250 FPS (1536 SPF)
Bit depth                                : 16 bits
Compression mode                         : Lossy
Delay relative to video                  : -20 ms
Stream size                              : 123 MiB (3%)
Title                                    : latino
Language                                 : Spanish
Service kind                             : Complete Main
Default                                  : Yes
Forced                                   : No

Audio #2
ID                                       : 3
Format                                   : AC-3
Format/Info                              : Audio Coding 3
Commercial name                          : Dolby Digital
Codec ID                                 : A_AC3
Duration                                 : 2 h 14 min
Bit rate mode                            : Constant
Bit rate                                 : 128 kb/s
Channel(s)                               : 2 channels
Channel layout                           : L R
Sampling rate                            : 48.0 kHz
Frame rate                               : 31.250 FPS (1536 SPF)
Bit depth                                : 16 bits
Compression mode                         : Lossy
Delay relative to video                  : -20 ms
Stream size                              : 123 MiB (3%)
Title                                    : ingles
Language                                 : English
Service kind                             : Complete Main
Default                                  : No
Forced                                   : No

Text #1
ID                                       : 4
Format                                   : VobSub
Muxing mode                              : zlib
Codec ID                                 : S_VOBSUB
Codec ID/Info                            : Picture based subtitle format used on DVDs
Duration                                 : 2 h 7 min
Bit rate                                 : 2 671 b/s
Count of elements                        : 1294
Stream size                              : 2.44 MiB (0%)
Title                                    : subtitulo 2
Language                                 : Spanish
Default                                  : No
Forced                                   : No

Text #2
ID                                       : 5
Format                                   : UTF-8
Codec ID                                 : S_TEXT/UTF8
Codec ID/Info                            : UTF-8 Plain Text
Duration                                 : 2 h 9 min
Bit rate                                 : 50 b/s
Count of elements                        : 1291
Stream size                              : 47.4 KiB (0%)
Title                                    : subtitulo 1
Language                                 : Spanish
Default                                  : No
Forced                                   : No

Text #3
ID                                       : 6
Format                                   : UTF-8
Codec ID                                 : S_TEXT/UTF8
Codec ID/Info                            : UTF-8 Plain Text
Duration                                 : 5 s 0 ms
Bit rate                                 : 49 b/s
Count of elements                        : 1
Stream size                              : 31.0 Bytes (0%)
Title                                    : forzado
Language                                 : Spanish
Default                                  : Yes
Forced                                   : No

BitRate : 3 759 kb/s
Audio Latino : LINE 2.0
Audio Inglés : LINE 2.0
* LINE es audio grabado de cine. Si no te gusta esta calidad,
No reclames, espera a que salga un audio de mejor calidad

* Chrome esta marcando los .torrent como archivos peligrosos,
Descarguenlos con confianza, son los mismos torrent de siempre.



Calidad Versión Atributo Tamaño link
BR-SCR 1080p 5.87 GB bohemian-rhapsody-brscr-2018-1080p-lat.html
BR-RIP 1080p 4.14 GB bohemian-rhapsody-1080p-2018-br-rip-lat.html
BR-RIP 720p 2.26 GB bohemian-rhapsody-720p-2018-br-rip-lat.html
FullHD 1080p Extras 2.06 GB bohemian-rhapsody-1080p-2018-fullhd-eng.html
FullHD 1080p 5.37 GB bohemian-rhapsody-1080p-2018-fullhd-lat.html
WEBDL 1080p 4.84 GB bohemian-rhapsody-1080p-2018-webdl-lat.html