7.0/10
5.160
5.0/10
1

Alt-torrent Películas para ver y compartir

Strategist Dominic Cummings leads a campaign to convince British voters to leave the European Union.

Título original:
Brexit: The Uncivil War
Año:
2019
Duración:
N/A
País:
UK
Director:
Toby Haynes
Escritor:
James Graham
Reparto:
Benedict Cumberbatch, Rory Kinnear, Liz White, Kyle Soller
Productora:
Channel 4 Television
Género:
Historia,Película de TV,Drama
Brexit - The Uncivil War (2019) WEBDL [1080p] ENG

Format                      : Matroska
Format version              : Version 4 / Version 2
File size                   : 4.68 GiB
Duration                    : 1 h 59 min
Overall bit rate            : 5 581 kb/s
Movie name                  : www.alt-torrent.com - By FllorTV
Encoded date                : UTC 2019-01-10 15:24:57
Writing application         : mkvmerge v30.1.0 ('Forever And More') 64-bit
Writing library             : libebml v1.3.6 + libmatroska v1.4.9

Video
ID                          : 1
Format                      : AVC
Format/Info                 : Advanced Video Codec
Format profile              : High@L4
Format settings             : CABAC / 4 Ref Frames
Format settings, CABAC      : Yes
Format settings, RefFrames  : 4 frames
Codec ID                    : V_MPEG4/ISO/AVC
Duration                    : 1 h 32 min
Bit rate                    : 6 848 kb/s
Width                       : 1 920 pixels
Height                      : 1 080 pixels
Display aspect ratio        : 16:9
Frame rate mode             : Constant
Frame rate                  : 25.000 FPS
Color space                 : YUV
Chroma subsampling          : 4:2:0
Bit depth                   : 8 bits
Scan type                   : Progressive
Bits/(Pixel*Frame)          : 0.132
Stream size                 : 4.43 GiB (95%)
Title                       : www.alt-torrent.com - By FllorTV
Default                     : Yes
Forced                      : No
Color range                 : Limited
Color primaries             : BT.709
Transfer characteristics    : BT.709
Matrix coefficients         : BT.709

Audio
ID                          : 2
Format                      : AC-3
Format/Info                 : Audio Coding 3
Format settings, Endianness : Big
Codec ID                    : A_AC3
Duration                    : 1 h 32 min
Bit rate mode               : Constant
Bit rate                    : 384 kb/s
Channel(s)                  : 6 channels
Channel positions           : Front: L C R, Side: L R, LFE
Sampling rate               : 48.0 kHz
Frame rate                  : 31.250 FPS (1536 SPF)
Bit depth                   : 16 bits
Compression mode            : Lossy
Stream size                 : 254 MiB (5%)
Title                       : Ingles
Language                    : English
Service kind                : Complete Main
Default                     : Yes
Forced                      : No

Text
ID                          : 3
Format                      : UTF-8
Codec ID                    : S_TEXT/UTF8
Codec ID/Info               : UTF-8 Plain Text
Duration                    : 1 h 59 min
Bit rate                    : 78 b/s
Count of elements           : 1730
Stream size                 : 68.9 KiB (0%)
Title                       : Latino
Language                    : Spanish
Default                     : Yes
Forced                      : Yes


BitRate : 5 581 kb/s
Audio --- : AC3 5.1

* Chrome esta marcando los .torrent como archivos peligrosos,
Descarguenlos con confianza, son los mismos torrent de siempre.



Calidad Versión Atributo Tamaño link
WEBDL 1080p 3.96 GB brexit-1080p-2019-webdl-lat.html
WEBDL 720p WEBDL 2.33 GB brexit-720p-2019-webdl-lat.html