6.2/10
35.553
7.5/10
6

Alt-torrent Películas con audio latino para ver y compartir

Todo lo que el matrimonio protagonista ha querido siempre es algo teóricamente simple: un hijo. A pesar de los intentos, ese deseo no parece hacerse realidad. Hasta que, una noche, un meteorito cae en la granja en la que estos viven. El mismo resulta ser una nave que contiene a un niño dentro. Conforme este va creciendo, descubre que tiene unas habilidades especiales que no le permiten encajar con el resto, unas habilidades que, de forma contraria a lo que se podría pensar, acaban sacando lo peor de sí mismo.

Título original:
Brightburn
Año:
2019
Duración:
90 min
País:
USA
Director:
David Yarovesky
Escritor:
Brian Gunn, Mark Gunn
Reparto:
Elizabeth Banks, David Denman, Jackson A. Dunn, Abraham Clinkscales
Productora:
The H Collective,Troll Court Entertainment
Género:
Terror,Ciencia ficción,Suspense
General
Unique ID                                : 192645032063442001303612075080196249912 (0x90EE1566140F9C93491D3E32F2F35938)
Complete name                            : Brightburn (2019) WEBDL 1080p LAT - FllorTV.mkv
Format                                   : Matroska
Format version                           : Version 4
File size                                : 3.17 GiB
Duration                                 : 1 h 30 min
Overall bit rate                         : 5 016 kb/s
Movie name                               : FllorTV
Encoded date                             : UTC 2019-08-07 12:58:12
Writing application                      : mkvmerge v27.0.0 ('Metropolis') 64-bit
Writing library                          : libebml v1.3.6 + libmatroska v1.4.9

Video
ID                                       : 1
Format                                   : AVC
Format/Info                              : Advanced Video Codec
Format profile                           : [email protected]
Format settings                          : CABAC / 5 Ref Frames
Format settings, CABAC                   : Yes
Format settings, ReFrames                : 5 frames
Codec ID                                 : V_MPEG4/ISO/AVC
Duration                                 : 1 h 30 min
Bit rate                                 : 4 504 kb/s
Width                                    : 1 920 pixels
Height                                   : 796 pixels
Display aspect ratio                     : 2.40:1
Frame rate mode                          : Constant
Frame rate                               : 23.976 (24000/1001) FPS
Color space                              : YUV
Chroma subsampling                       : 4:2:0
Bit depth                                : 8 bits
Scan type                                : Progressive
Bits/(Pixel*Frame)                       : 0.123
Stream size                              : 2.85 GiB (90%)
Title                                    : www.alt-torrent.com
Language                                 : English
Default                                  : Yes
Forced                                   : No
Color range                              : Limited
Color primaries                          : BT.709
Transfer characteristics                 : BT.709
Matrix coefficients                      : BT.709

Audio #1
ID                                       : 2
Format                                   : AAC LC
Format/Info                              : Advanced Audio Codec Low Complexity
Codec ID                                 : A_AAC-2
Duration                                 : 1 h 30 min
Bit rate                                 : 125 kb/s
Channel(s)                               : 2 channels
Channel layout                           : L R
Sampling rate                            : 44.1 kHz
Frame rate                               : 43.066 FPS (1024 SPF)
Compression mode                         : Lossy
Stream size                              : 81.0 MiB (2%)
Title                                    : www.alt-torrent.com
Default                                  : No
Forced                                   : No

Audio #2
ID                                       : 3
Format                                   : AC-3
Format/Info                              : Audio Coding 3
Commercial name                          : Dolby Digital
Codec ID                                 : A_AC3
Duration                                 : 1 h 30 min
Bit rate mode                            : Constant
Bit rate                                 : 384 kb/s
Channel(s)                               : 2 channels
Channel layout                           : L R
Sampling rate                            : 48.0 kHz
Frame rate                               : 31.250 FPS (1536 SPF)
Bit depth                                : 16 bits
Compression mode                         : Lossy
Stream size                              : 249 MiB (8%)
Title                                    : www.alt-torrent.com
Language                                 : English
Service kind                             : Complete Main
Default                                  : Yes
Forced                                   : No

Text #1
ID                                       : 4
Format                                   : UTF-8
Codec ID                                 : S_TEXT/UTF8
Codec ID/Info                            : UTF-8 Plain Text
Duration                                 : 1 h 29 min
Bit rate                                 : 0 b/s
Count of elements                        : 8
Stream size                              : 309 Bytes (0%)
Title                                    : www.alt-torrent.com
Language                                 : Spanish
Default                                  : Yes
Forced                                   : No

Text #2
ID                                       : 5
Format                                   : UTF-8
Codec ID                                 : S_TEXT/UTF8
Codec ID/Info                            : UTF-8 Plain Text
Duration                                 : 1 h 29 min
Bit rate                                 : 34 b/s
Count of elements                        : 874
Stream size                              : 22.8 KiB (0%)
Title                                    : www.alt-torrent.com
Language                                 : Spanish
Default                                  : No
Forced                                   : No


BitRate : 5 016 kb/s
Audio Latino : AAC 2.0
Audio Inglés : AAC 2.0

* Chrome esta marcando los .torrent como archivos peligrosos,
Descarguenlos con confianza, son los mismos torrent de siempre.

 AMBOS AUDIOS FINALES
LATINO AAC 2.0 - INGLES AC3 5.1
+ SUBTITULO SRT LATINO


Calidad Versión Atributo Tamaño link
BR-RIP 1080p 2.76 GB brightburn-1080p-br-rip-1080p-lat.html
BR-RIP 720p 2.15 GB brightburn-720p-br-rip-720p-lat.html
WEBDL 720p 1.91 GB brightburn-720p-webdl-720p-lat.html