6.3/10
135.717
8.4/10
38

Alt-torrent Películas con audio latino para ver y compartir

Un letal agente del la CIA (Johnson), víctima de acoso escolar en su adolescencia, vuelve a casa para asistir a una reunión de antiguos alumnos. Con la excusa de estar trabajando en un caso secreto, consigue la ayuda del chico popular en los años de Instituto (Hart), que ahora es un aburrido contable y vive añorando sus años de gloria. Para cuando el pobre oficinista se da cuenta del embrollo en el que se está metiendo, es demasiado tarde para desentenderse y su nuevo amigo, con maniobras cada vez más impredecibles, le arrastra a un mundo de tiroteos, traiciones y espionaje que les obligará a jugarse el cuello en incontables ocasiones.

Título original:
Central Intelligence
Año:
2016
Duración:
107 min
País:
USA
Director:
Rawson Marshall Thurber
Escritor:
Ike Barinholtz (screenplay), David Stassen (screenplay), Rawson Marshall Thurber (screenplay), Ike Barinholtz (story), David Stassen (story)
Reparto:
Dwayne Johnson, Kevin Hart, Amy Ryan, Danielle Nicolet
Productora:
New Line Cinema,Universal Pictures,Warner Bros.,Bluegrass Films,Principato-Young Entertainment
Género:
Acción,Comedia
General
Unique ID                                : 218767500551976790533828895441115884006 (0xA49516884B3EFB484102A9D3C09B29E6)
Complete name                            : /home/zeiz/files/Central Intelligence (2016) 1080p LAT - ZeiZ/Central Intelligence (2016) 1080p LAT - ZeiZ.mkv
Format                                   : Matroska
Format version                           : Version 4 / Version 2
File size                                : 3.68 GiB
Duration                                 : 1h 47mn
Overall bit rate                         : 4 894 Kbps
Movie name                               : Central Intelligence (2016) 1080p LAT - ZeiZ
Encoded date                             : UTC 2016-09-18 20:28:08
Writing application                      : mkvmerge v9.2.0 ('Photograph') 64bit
Writing library                          : libebml v1.3.3 + libmatroska v1.4.4
Attachements                             : Central Intelligence (2016) 1080p LAT - ZeiZ.jpg
DURATION                                 : 01:45:58.617000000
NUMBER_OF_FRAMES                         : 2273
NUMBER_OF_BYTES                          : 66315
_STATISTICS_WRITING_APP                  : mkvmerge v9.2.0 ('Photograph') 64bit
_STATISTICS_WRITING_DATE_UTC             : 2016-09-18 20:28:08
_STATISTICS_TAGS                         : BPS DURATION NUMBER_OF_FRAMES NUMBER_OF_BYTES

Video
ID                                       : 1
Format                                   : AVC
Format/Info                              : Advanced Video Codec
Format profile                           : [email protected]
Format settings, CABAC                   : Yes
Format settings, ReFrames                : 2 frames
Codec ID                                 : V_MPEG4/ISO/AVC
Duration                                 : 1h 47mn
Bit rate                                 : 4 000 Kbps
Width                                    : 1 920 pixels
Height                                   : 1 080 pixels
Display aspect ratio                     : 16:9
Frame rate mode                          : Constant
Frame rate                               : 23.976 fps
Color space                              : YUV
Chroma subsampling                       : 4:2:0
Bit depth                                : 8 bits
Scan type                                : Progressive
Bits/(Pixel*Frame)                       : 0.080
Stream size                              : 2.94 GiB (80%)
Title                                    : Central Intelligence (2016) 1080p LAT - ZeiZ
Writing library                          : x264 core 142
Encoding settings                        : cabac=1 / ref=1 / deblock=1:-1:-1 / analyse=0x3:0 / me=hex / subme=5 / psy=0 / mixed_ref=0 / me_range=16 / chroma_me=1 / trellis=0 / 8x8dct=1 / cqm=0 / deadzone=21,11 / fast_pskip=1 / chroma_qp_offset=0 / threads=8 / lookahead_threads=2 / sliced_threads=0 / nr=0 / decimate=1 / interlaced=0 / bluray_compat=0 / constrained_intra=0 / bframes=2 / b_pyramid=0 / b_adapt=1 / b_bias=0 / direct=1 / weightb=1 / open_gop=0 / weightp=0 / keyint=24 / keyint_min=13 / scenecut=40 / intra_refresh=0 / rc=2pass / mbtree=0 / bitrate=4000 / ratetol=1.0 / qcomp=0.60 / qpmin=0 / qpmax=69 / qpstep=4 / cplxblur=20.0 / qblur=0.5 / ip_ratio=1.40 / pb_ratio=1.30 / aq=1:1.00
Language                                 : English
Default                                  : Yes
Forced                                   : No
Color range                              : Limited
Color primaries                          : BT.709
Transfer characteristics                 : BT.709
Matrix coefficients                      : BT.709

Audio #1
ID                                       : 2
Format                                   : AC-3
Format/Info                              : Audio Coding 3
Mode extension                           : CM (complete main)
Format settings, Endianness              : Big
Codec ID                                 : A_AC3
Duration                                 : 1h 47mn
Bit rate mode                            : Constant
Bit rate                                 : 448 Kbps
Channel(s)                               : 6 channels
Channel positions                        : Front: L C R, Side: L R, LFE
Sampling rate                            : 48.0 KHz
Bit depth                                : 16 bits
Compression mode                         : Lossy
Delay relative to video                  : 8ms
Stream size                              : 345 MiB (9%)
Title                                    : Latino
Language                                 : Latin
Default                                  : Yes
Forced                                   : No

Audio #2
ID                                       : 3
Format                                   : AC-3
Format/Info                              : Audio Coding 3
Mode extension                           : CM (complete main)
Format settings, Endianness              : Big
Codec ID                                 : A_AC3
Duration                                 : 1h 47mn
Bit rate mode                            : Constant
Bit rate                                 : 448 Kbps
Channel(s)                               : 6 channels
Channel positions                        : Front: L C R, Side: L R, LFE
Sampling rate                            : 48.0 KHz
Bit depth                                : 16 bits
Compression mode                         : Lossy
Stream size                              : 345 MiB (9%)
Title                                    : Inglés
Language                                 : English
Default                                  : No
Forced                                   : No

Text #1
ID                                       : 4
Format                                   : UTF-8
Codec ID                                 : S_TEXT/UTF8
Codec ID/Info                            : UTF-8 Plain Text
Title                                    : www.alt-torrent.com
Language                                 : Latin
Default                                  : Yes
Forced                                   : Yes

Text #2
ID                                       : 5
Format                                   : UTF-8
Codec ID                                 : S_TEXT/UTF8
Codec ID/Info                            : UTF-8 Plain Text
Title                                    : Latino
Language                                 : Latin
Default                                  : No
Forced                                   : No

Text #3
ID                                       : 6
Format                                   : UTF-8
Codec ID                                 : S_TEXT/UTF8
Codec ID/Info                            : UTF-8 Plain Text
Title                                    : Inglés
Language                                 : English
Default                                  : No
Forced                                   : No

BitRate : 4 894 Kbps
Audio Latino : ----
Audio Inglés :

* Chrome esta marcando los .torrent como archivos peligrosos,
Descarguenlos con confianza, son los mismos torrent de siempre.



Calidad Versión Atributo Tamaño link
BR-RIP 1080p [Fixed] 2.65 GB central-intelligence-fixed-2016-1080p-lat.html
WEBDL 1080p 3.57 GB central-intelligence-2016-webdl-eng.html