6.3/10
137.002
8.3/10
4

Alt-torrent Películas con audio latino para ver y compartir

Un letal agente del la CIA (Johnson), víctima de acoso escolar en su adolescencia, vuelve a casa para asistir a una reunión de antiguos alumnos. Con la excusa de estar trabajando en un caso secreto, consigue la ayuda del chico popular en los años de Instituto (Hart), que ahora es un aburrido contable y vive añorando sus años de gloria. Para cuando el pobre oficinista se da cuenta del embrollo en el que se está metiendo, es demasiado tarde para desentenderse y su nuevo amigo, con maniobras cada vez más impredecibles, le arrastra a un mundo de tiroteos, traiciones y espionaje que les obligará a jugarse el cuello en incontables ocasiones.

Título original:
Central Intelligence
Año:
2016
Duración:
107 min
País:
USA, China
Director:
Rawson Marshall Thurber
Escritor:
Ike Barinholtz (screenplay), David Stassen (screenplay), Rawson Marshall Thurber (screenplay), Ike Barinholtz (story), David Stassen (story)
Reparto:
Dwayne Johnson, Kevin Hart, Amy Ryan, Danielle Nicolet
Productora:
Principato-Young Entertainment,Universal Pictures,New Line Cinema,Bluegrass Films
Género:
Acción,Comedia,Misterio
General
Unique ID                                : 58572006195331065455744633449582902562 (0x2C108EDD3EE9AEC3230AFDD2C69F3D22)
Complete name                            : /home/zeiz/files/Central Intelligence (2016) 1080p [Fixed] LAT - CharlX/Central Intelligence (2016) 1080p [Fixed] LAT - CharlX.mkv
Format                                   : Matroska
Format version                           : Version 4
File size                                : 2.65 GiB
Duration                                 : 1 h 47 min
Overall bit rate                         : 3 526 kb/s
Movie name                               : Central Intelligence (2016) 1080p [Fixed] LAT - CharlX
Encoded date                             : UTC 2019-01-11 19:39:40
Writing application                      : mkvmerge v26.0.0 ('In The Game') 64-bit
Writing library                          : libebml v1.3.6 + libmatroska v1.4.9
Attachments                              : Central Intelligence (2016) 1080p [Fixed] LAT - CharlX.jpg
Uploader                                 : CharlX
Web                                      : www.alt-torrent.com

Video
ID                                       : 1
Format                                   : AVC
Format/Info                              : Advanced Video Codec
Format profile                           : [email protected]
Format settings                          : CABAC / 2 Ref Frames
Format settings, CABAC                   : Yes
Format settings, ReFrames                : 2 frames
Codec ID                                 : V_MPEG4/ISO/AVC
Duration                                 : 1 h 47 min
Bit rate                                 : 3 000 kb/s
Width                                    : 1 920 pixels
Height                                   : 1 080 pixels
Display aspect ratio                     : 16:9
Frame rate mode                          : Constant
Frame rate                               : 23.976 (24000/1001) FPS
Color space                              : YUV
Chroma subsampling                       : 4:2:0
Bit depth                                : 8 bits
Scan type                                : Progressive
Bits/(Pixel*Frame)                       : 0.060
Stream size                              : 2.25 GiB (85%)
Title                                    : Central Intelligence (2016) 1080p [Fixed] LAT - CharlX
Writing library                          : x264 core 142
Encoding settings                        : cabac=1 / ref=1 / deblock=1:-1:-1 / analyse=0x3:0 / me=hex / subme=5 / psy=0 / mixed_ref=0 / me_range=16 / chroma_me=1 / trellis=0 / 8x8dct=1 / cqm=0 / deadzone=21,11 / fast_pskip=0 / chroma_qp_offset=0 / threads=32 / lookahead_threads=8 / sliced_threads=0 / nr=0 / decimate=1 / interlaced=0 / bluray_compat=0 / constrained_intra=0 / bframes=2 / b_pyramid=0 / b_adapt=1 / b_bias=0 / direct=1 / weightb=0 / open_gop=0 / weightp=0 / keyint=24 / keyint_min=13 / scenecut=40 / intra_refresh=0 / rc=2pass / mbtree=0 / bitrate=3000 / ratetol=1.0 / qcomp=0.60 / qpmin=0 / qpmax=69 / qpstep=4 / cplxblur=20.0 / qblur=0.5 / ip_ratio=1.40 / pb_ratio=1.30 / aq=1:1.00
Language                                 : English
Default                                  : Yes
Forced                                   : No
Color range                              : Limited
Color primaries                          : BT.709
Transfer characteristics                 : BT.709
Matrix coefficients                      : BT.709

Audio #1
ID                                       : 2
Format                                   : AC-3
Format/Info                              : Audio Coding 3
Commercial name                          : Dolby Digital
Codec ID                                 : A_AC3
Duration                                 : 1 h 47 min
Bit rate mode                            : Constant
Bit rate                                 : 256 kb/s
Channel(s)                               : 6 channels
Channel layout                           : L R C LFE Ls Rs
Sampling rate                            : 48.0 kHz
Frame rate                               : 31.250 FPS (1536 SPF)
Bit depth                                : 16 bits
Compression mode                         : Lossy
Stream size                              : 197 MiB (7%)
Title                                    : Latino
Language                                 : Latin
Service kind                             : Complete Main
Default                                  : Yes
Forced                                   : No

Audio #2
ID                                       : 3
Format                                   : AC-3
Format/Info                              : Audio Coding 3
Commercial name                          : Dolby Digital
Codec ID                                 : A_AC3
Duration                                 : 1 h 47 min
Bit rate mode                            : Constant
Bit rate                                 : 256 kb/s
Channel(s)                               : 6 channels
Channel layout                           : L R C LFE Ls Rs
Sampling rate                            : 48.0 kHz
Frame rate                               : 31.250 FPS (1536 SPF)
Bit depth                                : 16 bits
Compression mode                         : Lossy
Stream size                              : 197 MiB (7%)
Title                                    : Inglés
Language                                 : English
Service kind                             : Complete Main
Default                                  : No
Forced                                   : No

Text #1
ID                                       : 4
Format                                   : UTF-8
Codec ID                                 : S_TEXT/UTF8
Codec ID/Info                            : UTF-8 Plain Text
Duration                                 : 1 h 47 min
Bit rate                                 : 75 b/s
Count of elements                        : 2088
Stream size                              : 59.4 KiB (0%)
Title                                    : www.alt-torrent.com
Language                                 : Latin
Default                                  : Yes
Forced                                   : Yes

Text #2
ID                                       : 5
Format                                   : UTF-8
Codec ID                                 : S_TEXT/UTF8
Codec ID/Info                            : UTF-8 Plain Text
Duration                                 : 1 h 46 min
Bit rate                                 : 76 b/s
Count of elements                        : 2087
Stream size                              : 59.3 KiB (0%)
Title                                    : Latino - SRT
Language                                 : Latin
Default                                  : No
Forced                                   : No

Text #3
ID                                       : 6
Format                                   : PGS
Muxing mode                              : zlib
Codec ID                                 : S_HDMV/PGS
Codec ID/Info                            : Picture based subtitle format used on BDs/HD-DVDs
Duration                                 : 1 h 47 min
Bit rate                                 : 47.5 kb/s
Count of elements                        : 4582
Stream size                              : 36.5 MiB (1%)
Title                                    : Inglés - PGS
Language                                 : English
Default                                  : No
Forced                                   : No

Menu
00:00:00.000                             : en:(01)00:00:00:000
00:09:12.051                             : en:(02)00:09:12:051
00:20:11.751                             : en:(03)00:20:11:751
00:30:31.078                             : en:(04)00:30:31:078
00:43:21.764                             : en:(05)00:43:21:764
00:52:42.492                             : en:(06)00:52:42:492
00:58:09.860                             : en:(07)00:58:09:860
01:10:12.457                             : en:(08)01:10:12:457
01:18:36.752                             : en:(09)01:18:36:752
01:28:56.287                             : en:(10)01:28:56:287
01:39:32.256                             : en:(11)01:39:32:256
01:47:37.449                             : en:(12)01:47:37:449

BitRate : 3 526 kb/s
Audio Latino : AC3 5.1
Audio Inglés : AC3 5.1

* Chrome esta marcando los .torrent como archivos peligrosos,
Descarguenlos con confianza, son los mismos torrent de siempre.



Calidad Versión Atributo Tamaño link
BR-RIP 1080p 3.68 GB central-intelligence-2016-1080p-lat.html
WEBDL 1080p 3.57 GB central-intelligence-2016-webdl-eng.html