6.2/10
12.766
5.0/10
4

Alt-torrent Películas con audio latino para ver y compartir

Karen es una madre soltera que busca el regalo perfecto de cumpleaños para Andy, su hijo. Después de encontrar un muñeco y regalárselo a su hijo, será cuando ambos descubran la naturaleza maligna que esconde en su interior este juguete.

Ttulo original:
Child's Play
Ao:
2019
Duracin:
90 min
Pas:
Canada, USA
Director:
Lars Klevberg
Escritor:
Tyler Burton Smith (screenplay by), Don Mancini (based on characters created by)
Reparto:
Aubrey Plaza, Mark Hamill, Brian Tyree Henry, Tim Matheson
Productora:
KatzSmith Productions,Metro-Goldwyn-Mayer,Oddfellows Entertainment,Orion Pictures
Gnero:
Terror,Ciencia ficcin
Childs Play (2019)  1080p DUAL

Format                      : Matroska
Format version              : Version 4 / Version 2
File size                   : 4.67 GiB
Duration                    : 1 h 29 min
Overall bit rate            : 7 434 kb/s
Movie name                  : www.alt-torrent.com / By FllorTV
Encoded date                : UTC 2019-09-10 14:28:47
Writing application         : mkvmerge v31.0.0 ('Dolores In A Shoestand') 64-bit
Writing library             : libebml v1.3.6 + libmatroska v1.4.9

Video
ID                          : 1
Format                      : AVC
Format/Info                 : Advanced Video Codec
Format profile              : [email protected]
Format settings             : CABAC / 4 Ref Frames
Format settings, CABAC      : Yes
Format settings, RefFrames  : 4 frames
Codec ID                    : V_MPEG4/ISO/AVC
Duration                    : 1 h 29 min
Bit rate mode               : Constant
Bit rate                    : 6 536 kb/s
Nominal bit rate            : 10 000 kb/s
Width                       : 1 920 pixels
Height                      : 816 pixels
Display aspect ratio        : 2.35:1
Frame rate mode             : Constant
Frame rate                  : 23.976 (24000/1001) FPS
Color space                 : YUV
Chroma subsampling          : 4:2:0
Bit depth                   : 8 bits
Scan type                   : Progressive
Bits/(Pixel*Frame)          : 0.174
Stream size                 : 4.11 GiB (88%)
Title                       : www.alt-torrent.com / By FllorTV
Default                     : Yes
Forced                      : No
Color range                 : Limited
Color primaries             : BT.709
Transfer characteristics    : BT.709
Matrix coefficients         : BT.709

Audio #1
ID                          : 2
Format                      : AC-3
Format/Info                 : Audio Coding 3
Format settings, Endianness : Big
Codec ID                    : A_AC3
Duration                    : 1 h 29 min
Bit rate mode               : Constant
Bit rate                    : 256 kb/s
Channel(s)                  : 2 channels
Channel positions           : Front: L R
Sampling rate               : 48.0 kHz
Frame rate                  : 31.250 FPS (1536 SPF)
Bit depth                   : 16 bits
Compression mode            : Lossy
Stream size                 : 165 MiB (3%)
Title                       : Español latino
Language                    : Spanish
Service kind                : Complete Main
Default                     : Yes
Forced                      : No

Audio #2
ID                          : 3
Format                      : E-AC-3
Format/Info                 : Enhanced Audio Coding 3
Format settings, Endianness : Big
Codec ID                    : A_EAC3
Duration                    : 1 h 29 min
Bit rate mode               : Constant
Bit rate                    : 640 kb/s
Channel(s)                  : 6 channels
Channel positions           : Front: L C R, Side: L R, LFE
Sampling rate               : 48.0 kHz
Frame rate                  : 187.500 FPS (256 SPF)
Compression mode            : Lossy
Stream size                 : 412 MiB (9%)
Title                       : Ingles
Language                    : English
Service kind                : Complete Main
Default                     : No
Forced                      : No

Text #1
ID                          : 4
Format                      : UTF-8
Codec ID                    : S_TEXT/UTF8
Codec ID/Info               : UTF-8 Plain Text
Duration                    : 24 s 66 ms
Bit rate                    : 75 b/s
Count of elements           : 8
Stream size                 : 227 Bytes (0%)
Title                       : Forzados
Language                    : Spanish
Default                     : Yes
Forced                      : Yes

Text #2
ID                          : 5
Format                      : UTF-8
Codec ID                    : S_TEXT/UTF8
Codec ID/Info               : UTF-8 Plain Text
Duration                    : 1 h 29 min
Bit rate                    : 43 b/s
Count of elements           : 1122
Stream size                 : 28.4 KiB (0%)
Title                       : Español latino
Language                    : Spanish
Default                     : No
Forced                      : No

Menu
00:00:00.000                : en:1
00:12:00.000                : en:2
00:24:01.000                : en:3
00:32:38.000                : en:4
00:40:53.000                : en:5
00:56:44.000                : en:6
01:06:58.000                : en:7
01:16:40.000                : en:8
01:23:51.000                : en:9


BitRate : 7 434 kb/s
Audio Latino : AC3 2.0
Audio Inglés : AC3 2.0

* Chrome esta marcando los .torrent como archivos peligrosos,
Descarguenlos con confianza, son los mismos torrent de siempre.