4.0/10
277
8.0/10
1

Alt-torrent Películas con audio latino para ver y compartir

The Nereus is a fifty-year-old Ice Breaker, salvaged by an idealistic crew on a mission to catch illegal fisherman. On chase, the crew find themselves well off-course and bearing down on a body mysteriously floating in the middle of the Devil?s Sea. Superstitious or not, the team soon discovers they?ve rescued a deadly creature feeding on the lifeless body. Their new mission?kill or be killed and preferably before they hit land.

Título original:
Dead in the Water
Año:
2018
Duración:
N/A
País:
USA
Director:
Sheldon Wilson
Escritor:
N/A
Reparto:
Brandon Auret, Nikohl Boosheri, Nicole Fortuin, Bianca Simone Mannie
Productora:
Dandelion Productions,Out of Africa Entertainment,Blue Ice Pictures
Género:
Película de TV,Suspense
Dead in the Water (2018) WEBDL 1080p DUAL

Format                      : Matroska
Format version              : Version 4 / Version 2
File size                   : 3.86 GiB
Duration                    : 1 h 27 min
Overall bit rate            : 6 340 kb/s
Movie name                  : www.alt-torrent.com / By FllorTV
Encoded date                : UTC 2019-07-06 08:44:55
Writing application         : mkvmerge v31.0.0 ('Dolores In A Shoestand') 64-bit
Writing library             : libebml v1.3.6 + libmatroska v1.4.9

Video
ID                          : 1
Format                      : AVC
Format/Info                 : Advanced Video Codec
Format profile              : [email protected]
Format settings             : CABAC / 4 Ref Frames
Format settings, CABAC      : Yes
Format settings, RefFrames  : 4 frames
Codec ID                    : V_MPEG4/ISO/AVC
Duration                    : 1 h 27 min
Bit rate mode               : Constant
Bit rate                    : 5 698 kb/s
Nominal bit rate            : 10 000 kb/s
Width                       : 1 920 pixels
Height                      : 1 080 pixels
Display aspect ratio        : 16:9
Frame rate mode             : Constant
Frame rate                  : 23.976 (24000/1001) FPS
Color space                 : YUV
Chroma subsampling          : 4:2:0
Bit depth                   : 8 bits
Scan type                   : Progressive
Bits/(Pixel*Frame)          : 0.115
Stream size                 : 3.47 GiB (90%)
Title                       : www.alt-torrent.com / By FllorTV
Default                     : Yes
Forced                      : No
Color range                 : Limited
Color primaries             : BT.709
Transfer characteristics    : BT.709
Matrix coefficients         : BT.709

Audio #1
ID                          : 2
Format                      : AC-3
Format/Info                 : Audio Coding 3
Format settings, Endianness : Big
Codec ID                    : A_AC3
Duration                    : 1 h 27 min
Bit rate mode               : Constant
Bit rate                    : 256 kb/s
Channel(s)                  : 2 channels
Channel positions           : Front: L R
Sampling rate               : 48.0 kHz
Frame rate                  : 31.250 FPS (1536 SPF)
Bit depth                   : 16 bits
Compression mode            : Lossy
Stream size                 : 160 MiB (4%)
Title                       : Latino
Language                    : Spanish
Service kind                : Complete Main
Default                     : Yes
Forced                      : No

Audio #2
ID                          : 3
Format                      : AC-3
Format/Info                 : Audio Coding 3
Format settings, Endianness : Big
Codec ID                    : A_AC3
Duration                    : 1 h 27 min
Bit rate mode               : Constant
Bit rate                    : 384 kb/s
Channel(s)                  : 6 channels
Channel positions           : Front: L C R, Side: L R, LFE
Sampling rate               : 48.0 kHz
Frame rate                  : 31.250 FPS (1536 SPF)
Bit depth                   : 16 bits
Compression mode            : Lossy
Stream size                 : 239 MiB (6%)
Title                       : Ingles
Language                    : English
Service kind                : Complete Main
Default                     : No
Forced                      : No

Text #1
ID                          : 4
Format                      : UTF-8
Codec ID                    : S_TEXT/UTF8
Codec ID/Info               : UTF-8 Plain Text
Duration                    : 5 s 0 ms
Bit rate                    : 49 b/s
Count of elements           : 1
Stream size                 : 31.0 Bytes (0%)
Title                       : Forzados
Language                    : Spanish
Default                     : Yes
Forced                      : Yes

Text #2
ID                          : 5
Format                      : UTF-8
Codec ID                    : S_TEXT/UTF8
Codec ID/Info               : UTF-8 Plain Text
Duration                    : 1 h 25 min
Bit rate                    : 44 b/s
Count of elements           : 914
Stream size                 : 27.8 KiB (0%)
Title                       : Latino
Language                    : Spanish
Default                     : No
Forced                      : No


BitRate : 6 340 kb/s
Audio Latino : AC3 2.0
Audio Inglés : AC3 2.0

* Chrome esta marcando los .torrent como archivos peligrosos,
Descarguenlos con confianza, son los mismos torrent de siempre.