8.0/10
15.802
9.7/10
26

Alt-torrent Películas con audio latino para ver y compartir

La Tierra vive en paz después de que concluyó el Torneo de Fuerza. Luego de darse cuenta que los Universos aún tienen muchos guerreros poderosos, Gokú pasa todos los días entrenando para alcanzar un nivel de pelea mayor. Un día Gokú y Vegeta enfrentan a un nuevo saiyajin llamado ?Broly?, a quien nunca antes han visto. Supuestamente, los saiyajin fueron arrasados durante la destrucción del planeta Vegeta; entonces ¿qué hace uno de ellos en la Tierra? Este encuentro entre tres saiyajin, que han tenido destinos diferentes, se convierte en una batalla estupenda, con Freezer (que ha vuelto del infierno) atrapado en medio de ellos.

Título original:
ドラゴンボール超スーパー ブロリー
Año:
2018
Duración:
100 min
País:
Japan
Director:
Tatsuya Nagamine
Escritor:
Akira Toriyama (character creator), Akira Toriyama (screenplay)
Reparto:
Masako Nozawa, Aya Hisakawa, Ryô Horikawa, Toshio Furukawa
Productora:
Toei Animation,Fox International Productions,Shueisha,Fuji Television Network,Bandai Namco Entertainment
Género:
Acción,Animación,Fantasía,Aventura,Comedia,Ciencia ficción
Format                                   : Matroska
Format version                           : Version 4
File size                                : 4.04 GiB
Duration                                 : 1 h 41 min
Overall bit rate                         : 5 699 kb/s
Movie name                               : www.alt-torrent.com
Encoded date                             : UTC 2019-05-15 23:51:30
Writing application                      : mkvmerge v27.0.0 ('Metropolis') 64-bit
Writing library                          : libebml v1.3.6 + libmatroska v1.4.9

Video
ID                                       : 1
Format                                   : AVC
Format/Info                              : Advanced Video Codec
Format profile                           : [email protected]
Format settings                          : CABAC / 4 Ref Frames
Format settings, CABAC                   : Yes
Format settings, ReFrames                : 4 frames
Codec ID                                 : V_MPEG4/ISO/AVC
Duration                                 : 1 h 41 min
Bit rate                                 : 4 935 kb/s
Width                                    : 1 920 pixels
Height                                   : 1 080 pixels
Display aspect ratio                     : 16:9
Frame rate mode                          : Constant
Frame rate                               : 24.000 FPS
Color space                              : YUV
Chroma subsampling                       : 4:2:0
Bit depth                                : 8 bits
Scan type                                : Progressive
Bits/(Pixel*Frame)                       : 0.099
Stream size                              : 3.50 GiB (87%)
Title                                    : www.alt-torrent.com
Writing library                          : x264 core 157 r2935 545de2f
Encoding settings                        : cabac=1 / ref=4 / deblock=1:0:0 / analyse=0x3:0x133 / me=tesa / subme=11 / psy=1 / psy_rd=1.00:0.00 / mixed_ref=1 / me_range=24 / chroma_me=1 / trellis=2 / 8x8dct=1 / cqm=0 / deadzone=21,11 / fast_pskip=0 / chroma_qp_offset=-2 / threads=34 / lookahead_threads=8 / sliced_threads=0 / nr=0 / decimate=1 / interlaced=0 / bluray_compat=0 / constrained_intra=0 / bframes=16 / b_pyramid=2 / b_adapt=2 / b_bias=0 / direct=3 / weightb=1 / open_gop=0 / weightp=2 / keyint=240 / keyint_min=24 / scenecut=40 / intra_refresh=0 / rc_lookahead=60 / rc=crf / mbtree=1 / crf=20.0 / qcomp=0.60 / qpmin=0 / qpmax=69 / qpstep=4 / vbv_maxrate=62500 / vbv_bufsize=78125 / crf_max=0.0 / nal_hrd=none / filler=0 / ip_ratio=1.40 / aq=1:1.00
Default                                  : Yes
Forced                                   : No
Color range                              : Limited
Color primaries                          : BT.709
Transfer characteristics                 : BT.709
Matrix coefficients                      : BT.709

Audio #1
ID                                       : 2
Format                                   : AC-3
Format/Info                              : Audio Coding 3
Commercial name                          : Dolby Digital
Codec ID                                 : A_AC3
Duration                                 : 1 h 39 min
Bit rate mode                            : Constant
Bit rate                                 : 384 kb/s
Channel(s)                               : 6 channels
Channel layout                           : L R C LFE Ls Rs
Sampling rate                            : 48.0 kHz
Frame rate                               : 31.250 FPS (1536 SPF)
Bit depth                                : 16 bits
Compression mode                         : Lossy
Stream size                              : 274 MiB (7%)
Title                                    : www.alt-torrent.com
Language                                 : Spanish
Service kind                             : Complete Main
Default                                  : Yes
Forced                                   : No

Audio #2
ID                                       : 5
Format                                   : AC-3
Format/Info                              : Audio Coding 3
Commercial name                          : Dolby Digital
Codec ID                                 : A_AC3
Duration                                 : 1 h 41 min
Bit rate mode                            : Constant
Bit rate                                 : 384 kb/s
Channel(s)                               : 6 channels
Channel layout                           : L R C LFE Ls Rs
Sampling rate                            : 48.0 kHz
Frame rate                               : 31.250 FPS (1536 SPF)
Bit depth                                : 16 bits
Compression mode                         : Lossy
Stream size                              : 279 MiB (7%)
Title                                    : www.alt-torrent.com
Language                                 : Japanese
Service kind                             : Complete Main
Default                                  : No
Forced                                   : No

Text #1
ID                                       : 3
Format                                   : UTF-8
Codec ID                                 : S_TEXT/UTF8
Codec ID/Info                            : UTF-8 Plain Text
Duration                                 : 1 h 31 min
Bit rate                                 : 0 b/s
Count of elements                        : 7
Stream size                              : 136 Bytes (0%)
Title                                    : www.alt-torrent.com
Language                                 : Spanish
Default                                  : Yes
Forced                                   : Yes

Text #2
ID                                       : 4
Format                                   : UTF-8
Codec ID                                 : S_TEXT/UTF8
Codec ID/Info                            : UTF-8 Plain Text
Duration                                 : 1 h 35 min
Bit rate                                 : 51 b/s
Count of elements                        : 1031
Stream size                              : 35.8 KiB (0%)
Title                                    : www.alt-torrent.com
Language                                 : Spanish
Default                                  : No
Forced                                   : No

BitRate : 5 699 kb/s
Audio Latino : AC3 5.1
Audio Japones : AC3 5.1

* Chrome esta marcando los .torrent como archivos peligrosos,
Descarguenlos con confianza, son los mismos torrent de siempre.

 AMBOS AUDIOS FINALES
+ SUBTITULO SRT LATINO


Calidad Versión Atributo Tamaño link
BR-SCR 1080p 3.4 GB dragon-ball-super-broly-1080p-2018-br-scr-lat.html
BR-SCR 720p 1.28 GB dragon-ball-super-broly-720p-2018-br-scr-lat.html
WEBDL 1080p 3.75 GB dragon-ball-super-broly-1080p-2018-webdl-jpn.html
WEBDL 720p 2.02 GB dragon-ball-super-broly-720p-2018-webdl-jpn.html