6.4/10
36.309
7.6/10
18

Alt-torrent Películas con audio latino para ver y compartir

La nueva recreación de la película DUMBO dirigida por Tim Burton cuenta con Colin Farrel como Holt Farrier quien con ayuda de sus hijos Milly (Nico Parker) y Joe (Finley Hobbins) se dedican a cuidar a un elefante recién nacido cuyas orejas gigantes le hacer ser el hazmerreír en un Circo que no pasa por su mejor momento. La familia circense de Holt incluye además a la señorita Atlantis (Sharon Rooney), Rongo (DeObia Oparei), Pramesh Singh (Roshan Seth) y su sobrino (Ragevan Vasan), La grandiosa Catherine (Zenaida Alcalde) y el magnífico Iván (Miguel Muñoz). Max Medici (Danny DeVito) dueño del circo, se decepciona al saber sobre las enormes orejas del pequeño paquidermo hasta que descubre que es capaz de volar, llevando al circo de regreso a la prosperidad.

Título original:
Dumbo
Año:
2019
Duración:
112 min
País:
USA
Director:
Tim Burton
Escritor:
Ehren Kruger (screenplay by), Helen Aberson (novel), Harold Pearl (novel)
Reparto:
Colin Farrell, Michael Keaton, Danny DeVito, Eva Green
Productora:
Tim Burton Productions,Walt Disney Pictures,Moving Picture Company
Género:
Aventura,Familia,Fantasía
Format                                   : Matroska
Format version                           : Version 4
File size                                : 4.22 GiB
Duration                                 : 1 h 51 min
Overall bit rate                         : 5 398 kb/s
Movie name                               : www.alt-torrent.com
Encoded date                             : UTC 2019-06-16 00:38:07
Writing application                      : mkvmerge v27.0.0 ('Metropolis') 64-bit
Writing library                          : libebml v1.3.6 + libmatroska v1.4.9

Video
ID                                       : 1
Format                                   : AVC
Format/Info                              : Advanced Video Codec
Format profile                           : [email protected]
Format settings                          : 4 Ref Frames
Format settings, CABAC                   : No
Format settings, ReFrames                : 4 frames
Codec ID                                 : V_MPEG4/ISO/AVC
Duration                                 : 1 h 51 min
Bit rate                                 : 4 500 kb/s
Width                                    : 1 920 pixels
Height                                   : 1 080 pixels
Display aspect ratio                     : 16:9
Frame rate mode                          : Constant
Frame rate                               : 23.976 (24000/1001) FPS
Color space                              : YUV
Chroma subsampling                       : 4:2:0
Bit depth                                : 8 bits
Scan type                                : Progressive
Bits/(Pixel*Frame)                       : 0.091
Stream size                              : 3.52 GiB (83%)
Title                                    : www.alt-torrent.com
Writing library                          : x264 core 157 r2935 545de2f
Encoding settings                        : cabac=0 / ref=4 / deblock=0:-1:-1 / analyse=0x3:0x133 / me=umh / subme=10 / psy=1 / psy_rd=1.00:0.15 / mixed_ref=1 / me_range=24 / chroma_me=1 / trellis=2 / 8x8dct=1 / cqm=0 / deadzone=21,11 / fast_pskip=1 / chroma_qp_offset=-3 / threads=34 / lookahead_threads=5 / sliced_threads=0 / nr=0 / decimate=1 / interlaced=0 / bluray_compat=0 / constrained_intra=0 / bframes=8 / b_pyramid=2 / b_adapt=2 / b_bias=0 / direct=3 / weightb=0 / open_gop=0 / weightp=0 / keyint=240 / keyint_min=24 / scenecut=40 / intra_refresh=0 / rc_lookahead=60 / rc=2pass / mbtree=1 / bitrate=4500 / ratetol=1.0 / qcomp=0.60 / qpmin=0 / qpmax=69 / qpstep=4 / cplxblur=20.0 / qblur=0.5 / vbv_maxrate=25000 / vbv_bufsize=31250 / nal_hrd=none / filler=0 / ip_ratio=1.40 / aq=1:1.00
Default                                  : Yes
Forced                                   : No
Color range                              : Limited
Color primaries                          : BT.709
Transfer characteristics                 : BT.709
Matrix coefficients                      : BT.709

Audio #1
ID                                       : 2
Format                                   : AC-3
Format/Info                              : Audio Coding 3
Commercial name                          : Dolby Digital
Codec ID                                 : A_AC3
Duration                                 : 1 h 51 min
Bit rate mode                            : Constant
Bit rate                                 : 448 kb/s
Channel(s)                               : 6 channels
Channel layout                           : L R C LFE Ls Rs
Sampling rate                            : 48.0 kHz
Frame rate                               : 31.250 FPS (1536 SPF)
Bit depth                                : 16 bits
Compression mode                         : Lossy
Delay relative to video                  : -5 ms
Stream size                              : 359 MiB (8%)
Title                                    : www.alt-torrent.com
Language                                 : Spanish
Service kind                             : Complete Main
Default                                  : Yes
Forced                                   : Yes

Audio #2
ID                                       : 3
Format                                   : AC-3
Format/Info                              : Audio Coding 3
Commercial name                          : Dolby Digital
Codec ID                                 : A_AC3
Duration                                 : 1 h 51 min
Bit rate mode                            : Constant
Bit rate                                 : 448 kb/s
Channel(s)                               : 6 channels
Channel layout                           : L R C LFE Ls Rs
Sampling rate                            : 48.0 kHz
Frame rate                               : 31.250 FPS (1536 SPF)
Bit depth                                : 16 bits
Compression mode                         : Lossy
Delay relative to video                  : -5 ms
Stream size                              : 359 MiB (8%)
Title                                    : www.alt-torrent.com
Language                                 : English
Service kind                             : Complete Main
Default                                  : No
Forced                                   : No

Text
ID                                       : 4
Format                                   : UTF-8
Codec ID                                 : S_TEXT/UTF8
Codec ID/Info                            : UTF-8 Plain Text
Duration                                 : 1 h 41 min
Bit rate                                 : 44 b/s
Count of elements                        : 1161
Stream size                              : 33.0 KiB (0%)
Title                                    : www.alt-torrent.com
Language                                 : Spanish
Default                                  : Yes
Forced                                   : No

BitRate : 5 398 kb/s
Audio Latino : AC3 5.1
Audio Inglés : AC3 5.1

* Chrome esta marcando los .torrent como archivos peligrosos,
Descarguenlos con confianza, son los mismos torrent de siempre.

 AMBOS AUDIOS FINALES
LATINO AC3 5.1 - INGLES AC3 5.1
+ SUBTITULO SRT LATINO


Calidad Versión Atributo Tamaño link
4K 2160p H.265 17.36 GB dumbo-2160p-2019-4k-lat.html
BR-RIP 1080p 3.59 GB dumbo-1080p-2019-br-rip-lat.html
BR-RIP 720p 2.56 GB dumbo-720p-2019-br-rip-lat.html
DVDRIP 460p 1.38 GB dumbo-460p-2019-dvdrip-lat.html