6.8/10
14.216
6.8/10
1

Alt-torrent Películas con audio latino para ver y compartir

Una chica con el sobrenombre de "Dumplin" entra en un concurso de belleza para ganarse al chico que le gusta y pegarlo a las otras chicas en la escuela.

Título original:
Dumplin'
Año:
2018
Duración:
110 min
País:
USA
Director:
Anne Fletcher
Escritor:
Kristin Hahn (screenplay by), Julie Murphy (based on the novel by)
Reparto:
Danielle Macdonald, Jennifer Aniston, Odeya Rush, Maddie Baillio
Productora:
COTA Films,Echo Films
Género:
Comedia,Drama
Dumplin (2018) NETFLIX 1080p LAT - FllorTV

Format                      : Matroska
Format version              : Version 4 / Version 2
File size                   : 4.42 GiB
Duration                    : 1 h 50 min
Overall bit rate mode       : Variable
Overall bit rate            : 5 734 kb/s
Movie name                  : www.alt-torrent.com / - By FllorTV
Encoded date                : UTC 2019-02-08 19:15:09 / UTC 2019-01-31 18:30:08
Writing application         : mkvmerge v30.1.0 ('Forever And More') 64-bit
Writing library             : libebml v1.3.6 + libmatroska v1.4.9 / Lavf58.0.0

Video
ID                          : 1
Format                      : AVC
Format/Info                 : Advanced Video Codec
Format profile              : Main@L4
Format settings             : CABAC / 3 Ref Frames
Format settings, CABAC      : Yes
Format settings, RefFrames  : 3 frames
Codec ID                    : V_MPEG4/ISO/AVC
Duration                    : 1 h 50 min
Bit rate mode               : Variable
Bit rate                    : 5 110 kb/s
Maximum bit rate            : 7 665 kb/s
Width                       : 1 920 pixels
Height                      : 1 080 pixels
Display aspect ratio        : 16:9
Frame rate mode             : Constant
Frame rate                  : 23.976 (24000/1001) FPS
Color space                 : YUV
Chroma subsampling          : 4:2:0
Bit depth                   : 8 bits
Scan type                   : Progressive
Bits/(Pixel*Frame)          : 0.103
Stream size                 : 3.84 GiB (87%)
Title                       : www.alt-torrent.com / - By FllorTV
Writing library             : x264 core 148 r2715 7e75228
Encoding settings           : cabac=1 / ref=3 / deblock=1:0:0 / analyse=0x1:0x111 / me=umh / subme=10 / psy=1 / psy_rd=1.00:0.00 / mixed_ref=1 / me_range=24 / chroma_me=1 / trellis=2 / 8x8dct=0 / cqm=0 / deadzone=21,11 / fast_pskip=1 / chroma_qp_offset=-2 / threads=8 / lookahead_threads=1 / sliced_threads=0 / nr=0 / decimate=1 / interlaced=0 / bluray_compat=0 / stitchable=1 / constrained_intra=0 / bframes=2 / b_pyramid=0 / b_adapt=2 / b_bias=0 / direct=3 / weightb=1 / open_gop=0 / weightp=2 / keyint=48 / keyint_min=25 / scenecut=0 / intra_refresh=0 / rc_lookahead=48 / rc=2pass / mbtree=1 / bitrate=5110 / ratetol=1.0 / qcomp=0.50 / qpmin=6 / qpmax=51 / qpstep=4 / cplxblur=20.0 / qblur=0.5 / vbv_maxrate=7665 / vbv_bufsize=10220 / nal_hrd=vbr / filler=0 / ip_ratio=1.40 / aq=1:1.00
Default                     : Yes
Forced                      : No
Statistics Tags Issue       : mkvmerge v30.1.0 ('Forever And More') 64-bit 2019-02-08 19:15:09 / mkvmerge v30.1.0 ('Forever And More') 64-bit 2019-02-08 19:15:09 / UTC 2019-01-31 18:30:08
FromStats_BitRate           : 5091859
FromStats_Duration          : 01:50:18.821000000
FromStats_FrameCount        : 158693
FromStats_StreamSize        : 4212763442

Audio #1
ID                          : 2
Format                      : AC-3
Format/Info                 : Audio Coding 3
Format settings, Endianness : Big
Codec ID                    : A_AC3
Duration                    : 1 h 50 min
Bit rate mode               : Constant
Bit rate                    : 320 kb/s
Channel(s)                  : 6 channels
Channel positions           : Front: L C R, Side: L R, LFE
Sampling rate               : 48.0 kHz
Frame rate                  : 31.250 FPS (1536 SPF)
Bit depth                   : 16 bits
Compression mode            : Lossy
Stream size                 : 252 MiB (6%)
Title                       : Latino
Language                    : Spanish
Service kind                : Complete Main
Default                     : Yes
Forced                      : Yes
Statistics Tags Issue       : mkvmerge v30.1.0 ('Forever And More') 64-bit 2019-02-08 19:15:09 / mkvmerge v30.1.0 ('Forever And More') 64-bit 2019-02-08 19:15:09 / UTC 2019-01-31 18:30:08
FromStats_BitRate           : 320000
FromStats_Duration          : 01:50:19.040000000
FromStats_FrameCount        : 206845
FromStats_StreamSize        : 264761600

Audio #2
ID                          : 3
Format                      : AC-3
Format/Info                 : Audio Coding 3
Format settings, Endianness : Big
Codec ID                    : A_AC3
Duration                    : 1 h 50 min
Bit rate mode               : Constant
Bit rate                    : 320 kb/s
Channel(s)                  : 6 channels
Channel positions           : Front: L C R, Side: L R, LFE
Sampling rate               : 48.0 kHz
Frame rate                  : 31.250 FPS (1536 SPF)
Bit depth                   : 16 bits
Compression mode            : Lossy
Stream size                 : 252 MiB (6%)
Title                       : Ingles
Language                    : English
Service kind                : Complete Main
Default                     : No
Forced                      : No
Statistics Tags Issue       : mkvmerge v30.1.0 ('Forever And More') 64-bit 2019-02-08 19:15:09 / mkvmerge v30.1.0 ('Forever And More') 64-bit 2019-02-08 19:15:09 / UTC 2019-01-31 18:30:08
FromStats_BitRate           : 320000
FromStats_Duration          : 01:50:19.040000000
FromStats_FrameCount        : 206845
FromStats_StreamSize        : 264761600

Text #1
ID                          : 4
Format                      : UTF-8
Codec ID                    : S_TEXT/UTF8
Codec ID/Info               : UTF-8 Plain Text
Title                       : Forzados
Language                    : Spanish
Default                     : Yes
Forced                      : Yes
Statistics Tags Issue       : mkvmerge v30.1.0 ('Forever And More') 64-bit 2019-02-08 19:15:09 / mkvmerge v30.1.0 ('Forever And More') 64-bit 2019-02-08 19:15:09 / UTC 2019-01-31 18:30:08
FromStats_BitRate           : 1
FromStats_Duration          : 01:45:32.083000000
FromStats_FrameCount        : 49
FromStats_StreamSize        : 1294

Text #2
ID                          : 5
Format                      : UTF-8
Codec ID                    : S_TEXT/UTF8
Codec ID/Info               : UTF-8 Plain Text
Title                       : Completos
Language                    : Spanish
Default                     : No
Forced                      : No
Statistics Tags Issue       : mkvmerge v30.1.0 ('Forever And More') 64-bit 2019-02-08 19:15:09 / mkvmerge v30.1.0 ('Forever And More') 64-bit 2019-02-08 19:15:09 / UTC 2019-01-31 18:30:08
FromStats_BitRate           : 57
FromStats_Duration          : 01:45:04.256000000
FromStats_FrameCount        : 1485
FromStats_StreamSize        : 45249


BitRate : Variable
Audio Latino : AC3 5.1
Audio Inglés : AC3 5.1



Para habilitar los comentarios debes estar de acuerdo con las siguientes reglas:

  • Usar lenguaje apropiado evitando las faltas de respeto.
  • No incluir links a otras páginas de descarga
  • Evitar preguntas como "Cuando suben la película" o "Cuando sale en Latino",apenas estén disponibles las subiremos.
  • Los comentarios están habilitados, solo para pedir ayuda, informar algún problema con la película o comentar sobre la misma. Cualquier otro tipo de comentario puede ser borrado
  • No hacer reclamos o comentarios respecto a la publicidad, el acceso es gratis y esa es nuestra única forma de financiar los costos de la página. Y como dice el dicho: "a caballo regalado no se le miran los dientes".
  • Si necesitas ayuda, hacerlo en www.alt-torrent.com/ayuda.html
No cumplir con esto puede ser motivo de eliminación del comentario, bloqueo de los comentarios o bloqueo en ALT, dependiendo de la falta a estas reglas.