7.1/10
4.620
7.0/10
5

Alt-torrent Películas con audio latino para ver y compartir

Carlitos es un joven de diecisiete años con fama de estrella de cine, rizos rubios y cara de bebé. Ya en su primera adolescencia manifestó su verdadera vocación: ser un ladrón. Cuando conoce a Ramón en su nueva escuela, Carlitos se siente inmediatamente atraído por él y quiere llamar su atención. Juntos se embarcarán en un viaje de descubrimientos, amor y crimen. Debido a su apariencia angelical, la prensa llama a Carlitos "El ángel de la muerte". Llama la atención por su belleza, y se convierte en una celebridad de la noche a la mañana. En total se cree que cometió más de cuarenta robos y once asesinatos. Hoy, después de más de cuarenta y cinco años en la cárcel, Carlos Robledo Puch es el preso que más tiempo lleva en prisión en la historia de Argentina.

Título original:
El Ángel
Año:
2018
Duración:
118 min
País:
Argentina, Spain
Director:
Luis Ortega
Escritor:
Sergio Olguín, Luis Ortega, Rodolfo Palacios
Reparto:
Lorenzo Ferro, Chino Darín, Daniel Fanego, Mercedes Morán
Productora:
El Deseo,K&S Films,Instituto Nacional de Cine y Artes Audiovisuales,Underground Producciones,Telefe
Género:
Crimen,Drama
Format                                   : Matroska
Format version                           : Version 4
File size                                : 2.31 GiB
Duration                                 : 1 h 54 min
Overall bit rate                         : 2 885 kb/s
Movie name                               : www.alt-torrent.com
Encoded date                             : UTC 2019-03-05 16:14:55
Writing application                      : mkvmerge v27.0.0 ('Metropolis') 64-bit
Writing library                          : libebml v1.3.6 + libmatroska v1.4.9

Video
ID                                       : 1
Format                                   : AVC
Format/Info                              : Advanced Video Codec
Format profile                           : [email protected]
Format settings                          : CABAC / 2 Ref Frames
Format settings, CABAC                   : Yes
Format settings, ReFrames                : 2 frames
Codec ID                                 : V_MPEG4/ISO/AVC
Duration                                 : 1 h 54 min
Bit rate                                 : 2 500 kb/s
Width                                    : 1 280 pixels
Height                                   : 690 pixels
Display aspect ratio                     : 1.85:1
Frame rate mode                          : Constant
Frame rate                               : 24.000 FPS
Color space                              : YUV
Chroma subsampling                       : 4:2:0
Bit depth                                : 8 bits
Scan type                                : Progressive
Bits/(Pixel*Frame)                       : 0.118
Stream size                              : 2.00 GiB (87%)
Title                                    : www.alt-torrent.com
Writing library                          : x264 core 155 r2901
Encoding settings                        : cabac=1 / ref=2 / deblock=1:0:0 / analyse=0x3:0x133 / me=hex / subme=7 / psy=1 / psy_rd=1.00:0.00 / mixed_ref=0 / me_range=16 / chroma_me=1 / trellis=1 / 8x8dct=1 / cqm=0 / deadzone=21,11 / fast_pskip=1 / chroma_qp_offset=-2 / threads=22 / lookahead_threads=3 / sliced_threads=0 / nr=0 / decimate=1 / interlaced=0 / bluray_compat=0 / constrained_intra=0 / bframes=3 / b_pyramid=0 / b_adapt=1 / b_bias=0 / direct=3 / weightb=1 / open_gop=0 / weightp=2 / keyint=240 / keyint_min=24 / scenecut=40 / intra_refresh=0 / rc_lookahead=40 / rc=2pass / mbtree=1 / bitrate=2500 / ratetol=1.0 / qcomp=0.60 / qpmin=10 / qpmax=69 / qpstep=4 / cplxblur=20.0 / qblur=0.5 / vbv_maxrate=9500 / vbv_bufsize=24000 / nal_hrd=none / filler=0 / ip_ratio=1.40 / aq=3:1.00
Default                                  : Yes
Forced                                   : No

Audio
ID                                       : 2
Format                                   : AC-3
Format/Info                              : Audio Coding 3
Commercial name                          : Dolby Digital
Codec ID                                 : A_AC3
Duration                                 : 1 h 54 min
Bit rate mode                            : Constant
Bit rate                                 : 384 kb/s
Channel(s)                               : 6 channels
Channel layout                           : L R C LFE Ls Rs
Sampling rate                            : 48.0 kHz
Frame rate                               : 31.250 FPS (1536 SPF)
Bit depth                                : 16 bits
Compression mode                         : Lossy
Stream size                              : 315 MiB (13%)
Title                                    : www.alt-torrent.com
Language                                 : Spanish
Service kind                             : Complete Main
Default                                  : Yes
Forced                                   : No

BitRate : 2 885 kb/s
Audio Latino : AC3 5.1

* Chrome esta marcando los .torrent como archivos peligrosos,
Descarguenlos con confianza, son los mismos torrent de siempre.

 AUDIO FINAL


Calidad Versión Atributo Tamaño link
BR-RIP 1080p 3.09 GB el-angel-1080p-2018-br-rip-lat.html