6.4/10
14.654
6.5/10
2

Alt-torrent Películas con audio latino para ver y compartir

Thiller psicológico en el que seis extraños deberán usar su ingenio para ir encontrando pistas o morir en el intento.

Título original:
Escape Room
Año:
2019
Duración:
99 min
País:
USA, Canada
Director:
Adam Robitel
Escritor:
Bragi F. Schut (screenplay by), Maria Melnik (screenplay by), Bragi F. Schut (story by)
Reparto:
Taylor Russell, Logan Miller, Jay Ellis, Tyler Labine
Productora:
Original Film
Género:
Suspense
Escape Room (2019) WEBDL 1080p LAT - FllorTV

Format                      : Matroska
Format version              : Version 4 / Version 2
File size                   : 3.62 GiB
Duration                    : 1 h 39 min
Overall bit rate            : 5 199 kb/s
Movie name                  : www.alt-torrent.com / By FllorTV
Encoded date                : UTC 2019-04-11 11:13:40
Writing application         : mkvmerge v31.0.0 ('Dolores In A Shoestand') 64-bit
Writing library             : libebml v1.3.6 + libmatroska v1.4.9

Video
ID                          : 1
Format                      : AVC
Format/Info                 : Advanced Video Codec
Format profile              : [email protected]
Format settings             : CABAC / 5 Ref Frames
Format settings, CABAC      : Yes
Format settings, RefFrames  : 5 frames
Codec ID                    : V_MPEG4/ISO/AVC
Duration                    : 1 h 39 min
Bit rate                    : 4 557 kb/s
Width                       : 1 920 pixels
Height                      : 800 pixels
Display aspect ratio        : 2.40:1
Frame rate mode             : Constant
Frame rate                  : 23.976 (24000/1001) FPS
Color space                 : YUV
Chroma subsampling          : 4:2:0
Bit depth                   : 8 bits
Scan type                   : Progressive
Bits/(Pixel*Frame)          : 0.124
Stream size                 : 3.17 GiB (88%)
Title                       : www.alt-torrent.com / By FllorTV
Language                    : English
Default                     : Yes
Forced                      : No
Color range                 : Limited
Color primaries             : BT.709
Transfer characteristics    : BT.709
Matrix coefficients         : BT.709

Audio #1
ID                          : 2
Format                      : AC-3
Format/Info                 : Audio Coding 3
Format settings, Endianness : Big
Codec ID                    : A_AC3
Duration                    : 1 h 39 min
Bit rate mode               : Constant
Bit rate                    : 256 kb/s
Channel(s)                  : 2 channels
Channel positions           : Front: L R
Sampling rate               : 48.0 kHz
Frame rate                  : 31.250 FPS (1536 SPF)
Bit depth                   : 16 bits
Compression mode            : Lossy
Stream size                 : 182 MiB (5%)
Title                       : Latino
Language                    : Spanish
Service kind                : Complete Main
Default                     : Yes
Forced                      : No

Audio #2
ID                          : 3
Format                      : AC-3
Format/Info                 : Audio Coding 3
Format settings, Endianness : Big
Codec ID                    : A_AC3
Duration                    : 1 h 39 min
Bit rate mode               : Constant
Bit rate                    : 384 kb/s
Channel(s)                  : 6 channels
Channel positions           : Front: L C R, Side: L R, LFE
Sampling rate               : 48.0 kHz
Frame rate                  : 31.250 FPS (1536 SPF)
Bit depth                   : 16 bits
Compression mode            : Lossy
Stream size                 : 274 MiB (7%)
Title                       : Ingles
Language                    : English
Service kind                : Complete Main
Default                     : No
Forced                      : No

Text #1
ID                          : 4
Format                      : UTF-8
Codec ID                    : S_TEXT/UTF8
Codec ID/Info               : UTF-8 Plain Text
Duration                    : 1 h 25 min
Bit rate                    : 0 b/s
Count of elements           : 18
Stream size                 : 344 Bytes (0%)
Title                       : Forzados
Language                    : Spanish
Default                     : Yes
Forced                      : Yes

Text #2
ID                          : 5
Format                      : UTF-8
Codec ID                    : S_TEXT/UTF8
Codec ID/Info               : UTF-8 Plain Text
Duration                    : 1 h 33 min
Bit rate                    : 78 b/s
Count of elements           : 1555
Stream size                 : 53.6 KiB (0%)
Title                       : Completos
Language                    : Spanish
Default                     : No
Forced                      : No

Menu
00:00:00.000                : en:1
00:04:35.025                : en:2
00:09:24.646                : en:3
00:14:07.762                : en:4
00:19:45.099                : en:5
00:25:54.218                : en:6
00:33:07.942                : en:7
00:37:26.157                : en:8
00:43:04.077                : en:9
00:50:05.164                : en:10
00:53:57.562                : en:11
01:03:14.285                : en:12
01:09:06.887                : en:13
01:16:13.688                : en:14
01:22:47.748                : en:15
01:30:26.873                : en:16


BitRate : 5 199 kb/s
Audio Latino : AC3 5.1
Audio Inglés : AC3 5.1

* Chrome esta marcando los .torrent como archivos peligrosos,
Descarguenlos con confianza, son los mismos torrent de siempre.



Calidad Versión Atributo Tamaño link
BR-RIP 1080p 3.02 GB escape-room-1080p-2019-br-rip-lat.html
BR-RIP 720p 2.32 GB escape-room-720p-2019-br-rip-lat.html