6.6/10
170.947
8.0/10
14

Alt-torrent Películas con audio latino para ver y compartir

Cumpliendo con su amenaza, Grindelwald escapa de su custodia y ha comenzado a reunir seguidores, la mayoría de los cuales no sospechan sus verdaderas intenciones: alzar a los magos purasangre para reinar sobre todas las criaturas no mágicas. En un esfuerzo por frustrar los planes de Grindelwald, Albus Dumbledore (Jude Law) recluta a su antiguo estudiante Newt Scamander, quien accede a prestar su ayuda, sin conocer los peligros que aguardan. Las líneas quedan marcadas mientras el amor y la lealtad son puestos a prueba, incluso entre los amigos más cercanos y la familia, en un mundo mágico cada vez más dividido.

Título original:
Fantastic Beasts: The Crimes of Grindelwald
Año:
2018
Duración:
134 min
País:
UK, USA
Director:
David Yates
Escritor:
J.K. Rowling, J.K. Rowling (based upon characters created by)
Reparto:
Johnny Depp, Kevin Guthrie, Carmen Ejogo, Wolf Roth
Productora:
Warner Bros. Pictures,Heyday Films
Género:
Familia,Fantasía,Aventura
Format                                   : Matroska
Format version                           : Version 4
File size                                : 4.05 GiB
Duration                                 : 2 h 13 min
Overall bit rate                         : 4 333 kb/s
Movie name                               : www.alt-torrent.com - by fllortv
Encoded date                             : UTC 2019-02-27 02:56:19
Writing application                      : mkvmerge v27.0.0 ('Metropolis') 64-bit
Writing library                          : libebml v1.3.6 + libmatroska v1.4.9

Video
ID                                       : 1
Format                                   : AVC
Format/Info                              : Advanced Video Codec
Format profile                           : [email protected]
Format settings                          : CABAC / 5 Ref Frames
Format settings, CABAC                   : Yes
Format settings, ReFrames                : 5 frames
Codec ID                                 : V_MPEG4/ISO/AVC
Duration                                 : 2 h 13 min
Bit rate                                 : 3 500 kb/s
Width                                    : 1 920 pixels
Height                                   : 800 pixels
Display aspect ratio                     : 2.40:1
Frame rate mode                          : Constant
Frame rate                               : 23.976 (24000/1001) FPS
Color space                              : YUV
Chroma subsampling                       : 4:2:0
Bit depth                                : 8 bits
Scan type                                : Progressive
Bits/(Pixel*Frame)                       : 0.095
Stream size                              : 3.27 GiB (81%)
Title                                    : www.alt-torrent.com
Writing library                          : x264 core 157 r2935 545de2f
Encoding settings                        : cabac=1 / ref=5 / deblock=1:0:0 / analyse=0x3:0x113 / me=hex / subme=8 / psy=1 / psy_rd=1.00:0.00 / mixed_ref=1 / me_range=16 / chroma_me=1 / trellis=2 / 8x8dct=1 / cqm=0 / deadzone=21,11 / fast_pskip=1 / chroma_qp_offset=-2 / threads=25 / lookahead_threads=4 / sliced_threads=0 / nr=0 / decimate=1 / interlaced=0 / bluray_compat=0 / constrained_intra=0 / bframes=3 / b_pyramid=2 / b_adapt=1 / b_bias=0 / direct=3 / weightb=1 / open_gop=0 / weightp=2 / keyint=240 / keyint_min=24 / scenecut=40 / intra_refresh=0 / rc_lookahead=50 / rc=2pass / mbtree=1 / bitrate=3500 / ratetol=1.0 / qcomp=0.60 / qpmin=0 / qpmax=69 / qpstep=4 / cplxblur=20.0 / qblur=0.5 / vbv_maxrate=62500 / vbv_bufsize=78125 / nal_hrd=none / filler=0 / ip_ratio=1.40 / aq=1:1.00
Default                                  : Yes
Forced                                   : No
Color range                              : Limited
Color primaries                          : BT.709
Transfer characteristics                 : BT.709
Matrix coefficients                      : BT.709

Audio #1
ID                                       : 2
Format                                   : AC-3
Format/Info                              : Audio Coding 3
Commercial name                          : Dolby Digital
Codec ID                                 : A_AC3
Duration                                 : 2 h 13 min
Bit rate mode                            : Constant
Bit rate                                 : 384 kb/s
Channel(s)                               : 6 channels
Channel layout                           : L R C LFE Ls Rs
Sampling rate                            : 48.0 kHz
Frame rate                               : 31.250 FPS (1536 SPF)
Bit depth                                : 16 bits
Compression mode                         : Lossy
Delay relative to video                  : -5 ms
Stream size                              : 368 MiB (9%)
Title                                    : latino
Language                                 : Spanish
Service kind                             : Complete Main
Default                                  : Yes
Forced                                   : No

Audio #2
ID                                       : 3
Format                                   : AC-3
Format/Info                              : Audio Coding 3
Commercial name                          : Dolby Digital
Codec ID                                 : A_AC3
Duration                                 : 2 h 13 min
Bit rate mode                            : Constant
Bit rate                                 : 448 kb/s
Channel(s)                               : 6 channels
Channel layout                           : L R C LFE Ls Rs
Sampling rate                            : 48.0 kHz
Frame rate                               : 31.250 FPS (1536 SPF)
Bit depth                                : 16 bits
Compression mode                         : Lossy
Delay relative to video                  : -5 ms
Stream size                              : 429 MiB (10%)
Title                                    : ingles
Language                                 : English
Service kind                             : Complete Main
Default                                  : No
Forced                                   : No

Text #1
ID                                       : 4
Format                                   : UTF-8
Codec ID                                 : S_TEXT/UTF8
Codec ID/Info                            : UTF-8 Plain Text
Duration                                 : 20 min 46 s
Bit rate                                 : 0 b/s
Count of elements                        : 3
Stream size                              : 64.0 Bytes (0%)
Title                                    : forzado
Language                                 : Spanish
Default                                  : Yes
Forced                                   : No

Text #2
ID                                       : 5
Format                                   : UTF-8
Codec ID                                 : S_TEXT/UTF8
Codec ID/Info                            : UTF-8 Plain Text
Duration                                 : 2 h 4 min
Bit rate                                 : 40 b/s
Count of elements                        : 1245
Stream size                              : 36.7 KiB (0%)
Title                                    : completo
Language                                 : Spanish
Default                                  : No
Forced                                   : No

BitRate : 4 333 kb/s
Audio Latino : AC3 5.1
Audio Inglés : AC3 5.1

* Chrome esta marcando los .torrent como archivos peligrosos,
Descarguenlos con confianza, son los mismos torrent de siempre.

 AMBOS AUDIOS FINALES
+ SUBTITULO SRT LATINO


Calidad Versión Atributo Tamaño link
BR-RIP 720p 3.12 GB fantastic-beasts-the-crimes-of-grindelwald-720p-2018-br-rip-lat.html
FullHD 1080p 4.38 GB fantastic-beasts-the-crimes-of-grindelwald-1080p-2018-fullhd-lat.html
HD-RIP 1080p 4.56 GB fantastic-beasts-the-crimes-of-grindelwald-1080p-2018-hd-rip-lat.html
HD-RIP 720p 3.17 GB fantastic-beasts-the-crimes-of-grindelwald-720p-2018-hd-rip-lat.html
HD-RIP 720p 4.06 GB fantastic-beasts-the-crimes-of-grindelwald-2018-hdrip-lat.html
WEBDL 1080p 4.98 GB fantastic-beasts-the-crimes-of-grindelwald-1080p-2018-webdl-lat.html
WEBDL 720p 3.06 GB fantastic-beasts-the-crimes-of-grindelwald-720p-2018-webdl-lat.html