6.7/10
160.738
7.8/10
15

Alt-torrent Películas con audio latino para ver y compartir

Cumpliendo con su amenaza, Grindelwald escapa de su custodia y ha comenzado a reunir seguidores, la mayoría de los cuales no sospechan sus verdaderas intenciones: alzar a los magos purasangre para reinar sobre todas las criaturas no mágicas. En un esfuerzo por frustrar los planes de Grindelwald, Albus Dumbledore (Jude Law) recluta a su antiguo estudiante Newt Scamander, quien accede a prestar su ayuda, sin conocer los peligros que aguardan. Las líneas quedan marcadas mientras el amor y la lealtad son puestos a prueba, incluso entre los amigos más cercanos y la familia, en un mundo mágico cada vez más dividido.

Título original:
Fantastic Beasts: The Crimes of Grindelwald
Año:
2018
Duración:
134 min
País:
UK, USA
Director:
David Yates
Escritor:
J.K. Rowling, J.K. Rowling (based upon characters created by)
Reparto:
Johnny Depp, Kevin Guthrie, Carmen Ejogo, Wolf Roth
Productora:
Warner Bros. Pictures,Heyday Films
Género:
Familia,Fantasía,Aventura
Format                                   : Matroska
Format version                           : Version 4
File size                                : 4.98 GiB
Duration                                 : 2 h 13 min
Overall bit rate                         : 5 328 kb/s
Movie name                               : www.alt-torrent.com - By FllorTV
Encoded date                             : UTC 2019-02-15 05:08:35
Writing application                      : mkvmerge v27.0.0 ('Metropolis') 64-bit
Writing library                          : libebml v1.3.6 + libmatroska v1.4.9

Video
ID                                       : 1
Format                                   : AVC
Format/Info                              : Advanced Video Codec
Format profile                           : [email protected]
Format settings                          : CABAC / 5 Ref Frames
Format settings, CABAC                   : Yes
Format settings, ReFrames                : 5 frames
Codec ID                                 : V_MPEG4/ISO/AVC
Duration                                 : 2 h 13 min
Bit rate                                 : 4 558 kb/s
Width                                    : 1 920 pixels
Height                                   : 800 pixels
Display aspect ratio                     : 2.40:1
Frame rate mode                          : Constant
Frame rate                               : 23.976 (24000/1001) FPS
Color space                              : YUV
Chroma subsampling                       : 4:2:0
Bit depth                                : 8 bits
Scan type                                : Progressive
Bits/(Pixel*Frame)                       : 0.124
Stream size                              : 4.26 GiB (86%)
Title                                    : www.alt-torrent.com
Language                                 : English
Default                                  : Yes
Forced                                   : No
Color range                              : Limited
Color primaries                          : BT.709
Transfer characteristics                 : BT.709
Matrix coefficients                      : BT.709

Audio #1
ID                                       : 2
Format                                   : AC-3
Format/Info                              : Audio Coding 3
Commercial name                          : Dolby Digital
Codec ID                                 : A_AC3
Duration                                 : 2 h 13 min
Bit rate mode                            : Constant
Bit rate                                 : 384 kb/s
Channel(s)                               : 6 channels
Channel layout                           : L R C LFE Ls Rs
Sampling rate                            : 48.0 kHz
Frame rate                               : 31.250 FPS (1536 SPF)
Bit depth                                : 16 bits
Compression mode                         : Lossy
Delay relative to video                  : -42 ms
Stream size                              : 368 MiB (7%)
Title                                    : latino
Language                                 : Spanish
Service kind                             : Complete Main
Default                                  : Yes
Forced                                   : No

Audio #2
ID                                       : 3
Format                                   : AC-3
Format/Info                              : Audio Coding 3
Commercial name                          : Dolby Digital
Codec ID                                 : A_AC3
Duration                                 : 2 h 13 min
Bit rate mode                            : Constant
Bit rate                                 : 384 kb/s
Channel(s)                               : 6 channels
Channel layout                           : L R C LFE Ls Rs
Sampling rate                            : 48.0 kHz
Frame rate                               : 31.250 FPS (1536 SPF)
Bit depth                                : 16 bits
Compression mode                         : Lossy
Delay relative to video                  : -42 ms
Stream size                              : 368 MiB (7%)
Title                                    : ingles
Language                                 : English
Service kind                             : Complete Main
Default                                  : No
Forced                                   : No

Text #1
ID                                       : 4
Format                                   : UTF-8
Codec ID                                 : S_TEXT/UTF8
Codec ID/Info                            : UTF-8 Plain Text
Duration                                 : 20 min 46 s
Bit rate                                 : 0 b/s
Count of elements                        : 3
Stream size                              : 64.0 Bytes (0%)
Title                                    : forzados
Language                                 : Spanish
Default                                  : Yes
Forced                                   : No

Text #2
ID                                       : 5
Format                                   : UTF-8
Codec ID                                 : S_TEXT/UTF8
Codec ID/Info                            : UTF-8 Plain Text
Duration                                 : 2 h 4 min
Bit rate                                 : 40 b/s
Count of elements                        : 1245
Stream size                              : 36.7 KiB (0%)
Title                                    : completos
Language                                 : Spanish
Default                                  : No
Forced                                   : No

BitRate : 5 328 kb/s
Audio Latino : AC3 5.1
Audio Inglés : AC3 5.1

* Chrome esta marcando los .torrent como archivos peligrosos,
Descarguenlos con confianza, son los mismos torrent de siempre.

 ambos audios son finales
+ subtitulos SRT latino


Calidad Versión Atributo Tamaño link
BR-RIP 1080p 4.05 GB fantastic-beasts-the-crimes-of-grindelwald-1080p-2018-br-rip-lat.html
BR-RIP 720p 3.12 GB fantastic-beasts-the-crimes-of-grindelwald-720p-2018-br-rip-lat.html
FullHD 1080p 4.38 GB fantastic-beasts-the-crimes-of-grindelwald-1080p-2018-fullhd-lat.html
HD-RIP 1080p 4.56 GB fantastic-beasts-the-crimes-of-grindelwald-1080p-2018-hd-rip-lat.html
HD-RIP 720p 3.17 GB fantastic-beasts-the-crimes-of-grindelwald-720p-2018-hd-rip-lat.html
HD-RIP 720p 4.06 GB fantastic-beasts-the-crimes-of-grindelwald-2018-hdrip-lat.html
WEBDL 720p 3.06 GB fantastic-beasts-the-crimes-of-grindelwald-720p-2018-webdl-lat.html