7.4/10
119.656
8.2/10
15

Alt-torrent Películas con audio latino para ver y compartir

Biopic sobre el astronauta Neil Armstrong, ambientado entre los años 1961-1969, los años de preparación para ser el primer humano en pisar la luna.

Título original:
First Man
Año:
2018
Duración:
141 min
País:
USA
Director:
Damien Chazelle
Escritor:
Josh Singer (screenplay by), James R. Hansen (based on the book by)
Reparto:
Ryan Gosling, Claire Foy, Jason Clarke, Kyle Chandler
Productora:
DreamWorks,Temple Hill Entertainment,Universal Pictures,Amblin Entertainment,Phantasma Films
Género:
Historia,Drama
Format                                   : Matroska
Format version                           : Version 4
File size                                : 4.84 GiB
Duration                                 : 2 h 21 min
Overall bit rate                         : 4 917 kb/s
Movie name                               : www.alt-torrent.com - By FllorTV
Encoded date                             : UTC 2018-12-13 18:07:51
Writing application                      : mkvmerge v27.0.0 ('Metropolis') 64-bit
Writing library                          : libebml v1.3.6 + libmatroska v1.4.9

Video
ID                                       : 1
Format                                   : AVC
Format/Info                              : Advanced Video Codec
Format profile                           : [email protected]
Format settings                          : CABAC / 5 Ref Frames
Format settings, CABAC                   : Yes
Format settings, ReFrames                : 5 frames
Codec ID                                 : V_MPEG4/ISO/AVC
Duration                                 : 2 h 21 min
Bit rate                                 : 4 594 kb/s
Width                                    : 1 916 pixels
Height                                   : 796 pixels
Display aspect ratio                     : 2.40:1
Frame rate mode                          : Constant
Frame rate                               : 23.976 (23976/1000) FPS
Color space                              : YUV
Chroma subsampling                       : 4:2:0
Bit depth                                : 8 bits
Scan type                                : Progressive
Bits/(Pixel*Frame)                       : 0.126
Stream size                              : 4.52 GiB (93%)
Title                                    : www.alt-torrent.com
Language                                 : English
Default                                  : Yes
Forced                                   : No
Color range                              : Limited
Color primaries                          : BT.709
Transfer characteristics                 : BT.709
Matrix coefficients                      : BT.709

Audio #1
ID                                       : 2
Format                                   : AAC LC
Format/Info                              : Advanced Audio Codec Low Complexity
Codec ID                                 : A_AAC-2
Duration                                 : 2 h 20 min
Bit rate                                 : 128 kb/s
Channel(s)                               : 2 channels
Channel layout                           : L R
Sampling rate                            : 48.0 kHz
Frame rate                               : 46.875 FPS (1024 SPF)
Compression mode                         : Lossy
Delay relative to video                  : 8 ms
Stream size                              : 129 MiB (3%)
Title                                    : latino LINE
Language                                 : Spanish
Default                                  : Yes
Forced                                   : No

Audio #2
ID                                       : 3
Format                                   : AC-3
Format/Info                              : Audio Coding 3
Commercial name                          : Dolby Digital
Codec ID                                 : A_AC3
Duration                                 : 2 h 21 min
Bit rate mode                            : Constant
Bit rate                                 : 192 kb/s
Channel(s)                               : 2 channels
Channel layout                           : L R
Sampling rate                            : 48.0 kHz
Frame rate                               : 31.250 FPS (1536 SPF)
Bit depth                                : 16 bits
Compression mode                         : Lossy
Stream size                              : 194 MiB (4%)
Title                                    : ingles
Language                                 : English
Service kind                             : Complete Main
Default                                  : No
Forced                                   : No

Text
ID                                       : 4
Format                                   : UTF-8
Codec ID                                 : S_TEXT/UTF8
Codec ID/Info                            : UTF-8 Plain Text
Duration                                 : 2 h 20 min
Bit rate                                 : 54 b/s
Count of elements                        : 1632
Stream size                              : 56.1 KiB (0%)
Title                                    : latino
Language                                 : Spanish
Default                                  : Yes
Forced                                   : No

BitRate : 4 917 kb/s
Audio Latino : LINE 2.0
Audio Inglés : LINE 2.0
* LINE es audio grabado de cine. Si no te gusta esta calidad,
No reclames, espera a que salga un audio de mejor calidad

* Chrome esta marcando los .torrent como archivos peligrosos,
Descarguenlos con confianza, son los mismos torrent de siempre.



Calidad Versión Atributo Tamaño link
WEBDL 1080p [Imax] 5.87 GB first-man-imax-2018-webdl-lat.html
WEBDL 1080p 3.35 GB first-man-720p-2018-webdl-lat.html
WEBDL 1080p [60fps] 8.23 GB first-man-60fps-2018-webdl-lat.html