7.3/10
131.101
7.0/10
4

Alt-torrent Películas con audio latino para ver y compartir

Biopic sobre el astronauta Neil Armstrong, ambientado entre los años 1961-1969, los años de preparación para ser el primer humano en pisar la luna.

Título original:
First Man
Año:
2018
Duración:
141 min
País:
USA, Japan
Director:
Damien Chazelle
Escritor:
Josh Singer (screenplay by), James R. Hansen (based on the book by)
Reparto:
Ryan Gosling, Claire Foy, Jason Clarke, Kyle Chandler
Productora:
DreamWorks,Temple Hill Entertainment,Universal Pictures,Amblin Entertainment,Phantasma Films
Género:
Historia,Drama
First Man (2018) WEBDL [Imax] LAT - By FllorTV

AUDIO LATINO E INGLES YA VERSIÓN FINAL Surround 5.1

Format                      : Matroska
Format version              : Version 4 / Version 2
File size                   : 5.87 GiB
Duration                    : 2 h 21 min
Overall bit rate            : 5 958 kb/s
Movie name                  : www.alt-torrent.com - By FllorTV
Encoded date                : UTC 2019-01-08 09:36:37
Writing application         : mkvmerge v30.1.0 ('Forever And More') 64-bit
Writing library             : libebml v1.3.6 + libmatroska v1.4.9

Video
ID                          : 1
Format                      : AVC
Format/Info                 : Advanced Video Codec
Format profile              : [email protected]
Format settings             : CABAC / 4 Ref Frames
Format settings, CABAC      : Yes
Format settings, ReFrames   : 4 frames
Codec ID                    : V_MPEG4/ISO/AVC
Duration                    : 2 h 21 min
Bit rate                    : 5 059 kb/s
Width                       : 1 920 pixels
Height                      : 1 078 pixels
Display aspect ratio        : 16:9
Frame rate mode             : Constant
Frame rate                  : 23.976 (24000/1001) FPS
Color space                 : YUV
Chroma subsampling          : 4:2:0
Bit depth                   : 8 bits
Scan type                   : Progressive
Bits/(Pixel*Frame)          : 0.102
Stream size                 : 4.98 GiB (85%)
Title                       : www.alt-torrent.com - By FllorTV
Default                     : Yes
Forced                      : No
Color range                 : Limited
Color primaries             : BT.709
Transfer characteristics    : BT.709
Matrix coefficients         : BT.709

Audio #1
ID                          : 2
Format                      : AC-3
Format/Info                 : Audio Coding 3
Codec ID                    : A_AC3
Duration                    : 2 h 21 min
Bit rate mode               : Constant
Bit rate                    : 448 kb/s
Channel(s)                  : 6 channels
Channel positions           : Front: L C R, Side: L R, LFE
Sampling rate               : 48.0 kHz
Frame rate                  : 31.250 FPS (1536 SPF)
Bit depth                   : 16 bits
Compression mode            : Lossy
Delay relative to video     : -42 ms
Stream size                 : 452 MiB (8%)
Title                       : Surround 5.1
Language                    : Spanish
Service kind                : Complete Main
Default                     : Yes
Forced                      : No

Audio #2
ID                          : 3
Format                      : AC-3
Format/Info                 : Audio Coding 3
Codec ID                    : A_AC3
Duration                    : 2 h 21 min
Bit rate mode               : Constant
Bit rate                    : 448 kb/s
Channel(s)                  : 6 channels
Channel positions           : Front: L C R, Side: L R, LFE
Sampling rate               : 48.0 kHz
Frame rate                  : 31.250 FPS (1536 SPF)
Bit depth                   : 16 bits
Compression mode            : Lossy
Delay relative to video     : -42 ms
Stream size                 : 452 MiB (8%)
Title                       : Surround 5.1
Language                    : English
Service kind                : Complete Main
Default                     : No
Forced                      : No

Text #1
ID                          : 4
Format                      : UTF-8
Codec ID                    : S_TEXT/UTF8
Codec ID/Info               : UTF-8 Plain Text
Duration                    : 5 s 0 ms
Bit rate                    : 49 b/s
Count of elements           : 1
Stream size                 : 31.0 Bytes (0%)
Title                       : Forzados
Language                    : Spanish
Default                     : Yes
Forced                      : Yes

Text #2
ID                          : 5
Format                      : UTF-8
Codec ID                    : S_TEXT/UTF8
Codec ID/Info               : UTF-8 Plain Text
Duration                    : 2 h 20 min
Bit rate                    : 54 b/s
Count of elements           : 1632
Stream size                 : 56.1 KiB (0%)
Title                       : Completos
Language                    : Spanish
Default                     : No
Forced                      : No

Menu
00:00:00.000                : en:1
00:07:21.441                : en:2
00:13:36.983                : en:3
00:19:54.193                : en:4
00:26:00.726                : en:5
00:31:31.139                : en:6
00:40:18.249                : en:7
00:49:58.703                : en:8
01:00:03.933                : en:9
01:05:43.396                : en:10
01:11:06.719                : en:11
01:15:13.966                : en:12
01:21:33.887                : en:13
01:30:36.304                : en:14
01:39:01.725                : en:15
01:48:59.489                : en:16
01:54:45.418                : en:17
02:00:15.915                : en:18
02:09:56.703                : en:19
02:14:03.740                : en:20


BitRate : 5 958 kb/s
Audio Latino : AC3 5.1
Audio Inglés : AC3 5.1

* Chrome esta marcando los .torrent como archivos peligrosos,
Descarguenlos con confianza, son los mismos torrent de siempre.



Calidad Versión Atributo Tamaño link
WEBDL 1080p 4.85 GB first-man-2018-webdl-lat.html
WEBDL 1080p 3.35 GB first-man-720p-2018-webdl-lat.html
WEBDL 1080p [60fps] 8.23 GB first-man-60fps-2018-webdl-lat.html