7.2/10
20.277
7.0/10
3

Alt-torrent Películas con audio latino para ver y compartir

Will y Stella son dos adolescentes que padecen fibrosis quística y están ingresados en el hospital para tratarse. Aunque ambos tratan de refugiarse en su propio mundo, de forma inevitable acaban enamorándose. La pareja deberá luchar para mantener viva su relación, con una única regla: separarse con una distancia de alrededor de dos metros para evitar que ambos se puedan contagiar. Sin embargo, la vida de ambos estará en peligro.

Título original:
Five Feet Apart
Año:
2019
Duración:
116 min
País:
USA
Director:
Justin Baldoni
Escritor:
Mikki Daughtry, Tobias Iaconis
Reparto:
Haley Lu Richardson, Cole Sprouse, Moises Arias, Kimberly Hebert Gregory
Productora:
Wayfarer Entertainment,CBS Films
Género:
Romance,Drama
Format                                   : Matroska
Format version                           : Version 4
File size                                : 4.22 GiB
Duration                                 : 1 h 56 min
Overall bit rate                         : 5 204 kb/s
Movie name                               : www.alt-torrent.com
Encoded date                             : UTC 2019-05-30 00:16:37
Writing application                      : mkvmerge v27.0.0 ('Metropolis') 64-bit
Writing library                          : libebml v1.3.6 + libmatroska v1.4.9

Video
ID                                       : 1
Format                                   : AVC
Format/Info                              : Advanced Video Codec
Format profile                           : [email protected]
Format settings                          : CABAC / 5 Ref Frames
Format settings, CABAC                   : Yes
Format settings, ReFrames                : 5 frames
Codec ID                                 : V_MPEG4/ISO/AVC
Duration                                 : 1 h 56 min
Bit rate                                 : 4 562 kb/s
Width                                    : 1 920 pixels
Height                                   : 792 pixels
Display aspect ratio                     : 2.40:1
Frame rate mode                          : Constant
Frame rate                               : 23.976 (23976/1000) FPS
Color space                              : YUV
Chroma subsampling                       : 4:2:0
Bit depth                                : 8 bits
Scan type                                : Progressive
Bits/(Pixel*Frame)                       : 0.125
Stream size                              : 3.70 GiB (88%)
Title                                    : www.alt-torrent.com
Language                                 : English
Default                                  : Yes
Forced                                   : No
Color range                              : Limited
Color primaries                          : BT.709
Transfer characteristics                 : BT.709
Matrix coefficients                      : BT.709

Audio #1
ID                                       : 2
Format                                   : AC-3
Format/Info                              : Audio Coding 3
Commercial name                          : Dolby Digital
Codec ID                                 : A_AC3
Duration                                 : 1 h 56 min
Bit rate mode                            : Constant
Bit rate                                 : 256 kb/s
Channel(s)                               : 2 channels
Channel layout                           : L R
Sampling rate                            : 48.0 kHz
Frame rate                               : 31.250 FPS (1536 SPF)
Bit depth                                : 16 bits
Compression mode                         : Lossy
Delay relative to video                  : -42 ms
Stream size                              : 213 MiB (5%)
Title                                    : www.alt-torrent.com
Language                                 : Spanish
Service kind                             : Complete Main
Default                                  : Yes
Forced                                   : No

Audio #2
ID                                       : 3
Format                                   : AC-3
Format/Info                              : Audio Coding 3
Commercial name                          : Dolby Digital
Codec ID                                 : A_AC3
Duration                                 : 1 h 56 min
Bit rate mode                            : Constant
Bit rate                                 : 384 kb/s
Channel(s)                               : 6 channels
Channel layout                           : L R C LFE Ls Rs
Sampling rate                            : 48.0 kHz
Frame rate                               : 31.250 FPS (1536 SPF)
Bit depth                                : 16 bits
Compression mode                         : Lossy
Delay relative to video                  : -42 ms
Stream size                              : 319 MiB (7%)
Title                                    : www.alt-torrent.com
Language                                 : English
Service kind                             : Complete Main
Default                                  : No
Forced                                   : No

Text #1
ID                                       : 4
Format                                   : UTF-8
Codec ID                                 : S_TEXT/UTF8
Codec ID/Info                            : UTF-8 Plain Text
Duration                                 : 1 h 44 min
Bit rate                                 : 1 b/s
Count of elements                        : 41
Stream size                              : 1.38 KiB (0%)
Title                                    : www.alt-torrent.com
Language                                 : Spanish
Default                                  : Yes
Forced                                   : No

Text #2
ID                                       : 5
Format                                   : UTF-8
Codec ID                                 : S_TEXT/UTF8
Codec ID/Info                            : UTF-8 Plain Text
Duration                                 : 1 h 49 min
Bit rate                                 : 44 b/s
Count of elements                        : 1089
Stream size                              : 35.8 KiB (0%)
Title                                    : www.alt-torrent.com
Language                                 : Spanish
Default                                  : No
Forced                                   : No

BitRate : 5 204 kb/s
Audio Latino : AC3 2.0
Audio Inglés : AC3 2.0

* Chrome esta marcando los .torrent como archivos peligrosos,
Descarguenlos con confianza, son los mismos torrent de siempre.

 AMBOS AUDIOS FINALES
+ SUBTITULO SRT LATINO


Calidad Versión Atributo Tamaño link
BR-RIP 1080p 3.5 GB five-feet-apart-1080p-2019-br-rip-lat.html
FullHD 1080p 3.99 GB five-feet-apart-1080p-2019-fullhd-lat.html