3.2/10
627
3.7/10
6

Alt-torrent Películas para ver y compartir

A group of friends runs a popular travel vlog that helps fund their adventures. The leader of the group includes her younger sister for the next scuba diving trip to an isolated cove. But when their plane crashes, the two sisters must use their strength, resourcefulness and immense courage to survive a pack of great white sharks.

Título original:
Frenzy
Año:
2018
Duración:
85 min
País:
USA
Director:
Jose Montesinos
Escritor:
Graham Winter
Reparto:
Aubrey Reynolds, Gina Vitori, Lanett Tachel, Taylor Jorgensen
Productora:
Shark Pack LD,Slightly Distorted Productions,Benetone Films
Género:
Terror,Suspense,Película de TV
Frenzy (2018) 1080p ENG

Format                      : Matroska
Format version              : Version 4 / Version 2
File size                   : 2.33 GiB
Duration                    : 1 h 24 min
Overall bit rate            : 3 922 kb/s
Movie name                  : www.alt-torrent.com - By FllorTV
Encoded date                : UTC 2019-01-10 17:41:30
Writing application         : mkvmerge v30.1.0 ('Forever And More') 64-bit
Writing library             : libebml v1.3.6 + libmatroska v1.4.9

Video
ID                          : 1
Format                      : AVC
Format/Info                 : Advanced Video Codec
Format profile              : [email protected]
Format settings             : CABAC / 4 Ref Frames
Format settings, CABAC      : Yes
Format settings, RefFrames  : 4 frames
Codec ID                    : V_MPEG4/ISO/AVC
Duration                    : 1 h 24 min
Bit rate                    : 3 500 kb/s
Width                       : 1 920 pixels
Height                      : 1 080 pixels
Display aspect ratio        : 16:9
Frame rate mode             : Constant
Frame rate                  : 23.976 (24000/1001) FPS
Color space                 : YUV
Chroma subsampling          : 4:2:0
Bit depth                   : 8 bits
Scan type                   : Progressive
Bits/(Pixel*Frame)          : 0.070
Stream size                 : 2.06 GiB (89%)
Title                       : www.alt-torrent.com - By FllorTV
Writing library             : x264 core 155 r2901 7d0ff22
Encoding settings           : cabac=1 / ref=4 / deblock=1:0:0 / analyse=0x3:0x113 / me=hex / subme=8 / psy=1 / psy_rd=1.00:0.00 / mixed_ref=1 / me_range=16 / chroma_me=1 / trellis=2 / 8x8dct=1 / cqm=0 / deadzone=21,11 / fast_pskip=1 / chroma_qp_offset=-2 / threads=34 / lookahead_threads=5 / sliced_threads=0 / nr=0 / decimate=1 / interlaced=0 / bluray_compat=0 / constrained_intra=0 / bframes=3 / b_pyramid=2 / b_adapt=1 / b_bias=0 / direct=3 / weightb=1 / open_gop=0 / weightp=2 / keyint=240 / keyint_min=24 / scenecut=40 / intra_refresh=0 / rc_lookahead=50 / rc=abr / mbtree=1 / bitrate=3500 / ratetol=1.0 / qcomp=0.60 / qpmin=0 / qpmax=69 / qpstep=4 / vbv_maxrate=62500 / vbv_bufsize=78125 / nal_hrd=none / filler=0 / ip_ratio=1.40 / aq=1:1.00
Default                     : Yes
Forced                      : No
Color range                 : Limited
Color primaries             : BT.709
Transfer characteristics    : BT.709
Matrix coefficients         : BT.709

Audio
ID                          : 2
Format                      : AC-3
Format/Info                 : Audio Coding 3
Format settings, Endianness : Big
Codec ID                    : A_AC3
Duration                    : 1 h 24 min
Bit rate mode               : Constant
Bit rate                    : 448 kb/s
Channel(s)                  : 6 channels
Channel positions           : Front: L C R, Side: L R, LFE
Sampling rate               : 48.0 kHz
Frame rate                  : 31.250 FPS (1536 SPF)
Bit depth                   : 16 bits
Compression mode            : Lossy
Stream size                 : 272 MiB (11%)
Title                       : Ingles
Language                    : English
Service kind                : Complete Main
Default                     : Yes
Forced                      : No

Text
ID                          : 3
Format                      : UTF-8
Codec ID                    : S_TEXT/UTF8
Codec ID/Info               : UTF-8 Plain Text
Duration                    : 1 h 24 min
Bit rate                    : 48 b/s
Count of elements           : 1030
Stream size                 : 30.0 KiB (0%)
Title                       : Latino
Language                    : Spanish
Default                     : Yes
Forced                      : Yes

Menu
00:00:00.000                : :Chapter 1
00:07:04.382                : :Chapter 2
00:18:12.758                : :Chapter 3
00:23:35.748                : :Chapter 4
00:30:51.725                : :Chapter 5
00:40:31.179                : :Chapter 6
00:50:29.318                : :Chapter 7
00:58:36.888                : :Chapter 8
01:06:45.793                : :Chapter 9
01:12:55.955                : :Chapter 10
01:18:12.438                : :Chapter 11
01:24:24.351                : :Chapter 12


BitRate : 3 922 kb/s
Audio Inglés : AC3 5.1

* Chrome esta marcando los .torrent como archivos peligrosos,
Descarguenlos con confianza, son los mismos torrent de siempre.