6.8/10
126.854
7.3/10
15

Alt-torrent Películas con audio latino para ver y compartir

Continuando desde donde lo dejó "Múltiple", "Glass" sigue los pasos de David Dunn (Bruce Willis) en su búsqueda de la figura superhumana de "La Bestia". En la sombra, Elijah Price (Samuel L. Jackson) parece emerger como una figura clave que conoce los secretos de ambos. Secuela de "El protegido" y "Múltiple", de M. Night Shyamalan.

Título original:
Glass
Año:
2019
Duración:
129 min
País:
USA
Director:
M. Night Shyamalan
Escritor:
M. Night Shyamalan
Reparto:
James McAvoy, Bruce Willis, Samuel L. Jackson, Anya Taylor-Joy
Productora:
Universal Pictures,Blumhouse Productions,Blinding Edge Pictures,Buena Vista International,Perfect World Pictures
Género:
Suspense,Misterio,Drama,Fantasía,Ciencia ficción
Glass (2019) FullHD 1080p LAT - FllorTV

Format                      : Matroska
Format version              : Version 4 / Version 2
File size                   : 3.07 GiB
Duration                    : 2 h 9 min
Overall bit rate            : 3 406 kb/s
Movie name                  : www.alt-torrent.com / - By FllorTV
Encoded date                : UTC 2019-04-11 11:05:07
Writing application         : mkvmerge v31.0.0 ('Dolores In A Shoestand') 64-bit
Writing library             : libebml v1.3.6 + libmatroska v1.4.9

Video
ID                          : 1
Format                      : AVC
Format/Info                 : Advanced Video Codec
Format profile              : [email protected]
Format settings             : CABAC / 4 Ref Frames
Format settings, CABAC      : Yes
Format settings, RefFrames  : 4 frames
Codec ID                    : V_MPEG4/ISO/AVC
Duration                    : 2 h 9 min
Bit rate                    : 2 124 kb/s
Width                       : 1 920 pixels
Height                      : 1 080 pixels
Display aspect ratio        : 16:9
Frame rate mode             : Constant
Frame rate                  : 23.976 (24000/1001) FPS
Color space                 : YUV
Chroma subsampling          : 4:2:0
Bit depth                   : 8 bits
Scan type                   : Progressive
Bits/(Pixel*Frame)          : 0.043
Stream size                 : 1.91 GiB (62%)
Title                       : www.alt-torrent.com / - By FllorTV
Writing library             : x264 core 157 r2935 545de2f
Encoding settings           : cabac=1 / ref=4 / deblock=1:0:0 / analyse=0x3:0x133 / me=tesa / subme=11 / psy=1 / psy_rd=1.00:0.00 / mixed_ref=1 / me_range=24 / chroma_me=1 / trellis=2 / 8x8dct=1 / cqm=0 / deadzone=21,11 / fast_pskip=0 / chroma_qp_offset=-2 / threads=34 / lookahead_threads=8 / sliced_threads=0 / nr=0 / decimate=1 / interlaced=0 / bluray_compat=0 / constrained_intra=0 / bframes=16 / b_pyramid=2 / b_adapt=2 / b_bias=0 / direct=3 / weightb=1 / open_gop=0 / weightp=2 / keyint=240 / keyint_min=24 / scenecut=40 / intra_refresh=0 / rc_lookahead=60 / rc=crf / mbtree=1 / crf=20.0 / qcomp=0.60 / qpmin=0 / qpmax=69 / qpstep=4 / vbv_maxrate=62500 / vbv_bufsize=78125 / crf_max=0.0 / nal_hrd=none / filler=0 / ip_ratio=1.40 / aq=1:1.00
Default                     : Yes
Forced                      : No
Color range                 : Limited
Color primaries             : BT.709
Transfer characteristics    : BT.709
Matrix coefficients         : BT.709

Audio #1
ID                          : 2
Format                      : AC-3
Format/Info                 : Audio Coding 3
Format settings, Endianness : Big
Codec ID                    : A_AC3
Duration                    : 2 h 9 min
Bit rate mode               : Constant
Bit rate                    : 640 kb/s
Channel(s)                  : 6 channels
Channel positions           : Front: L C R, Side: L R, LFE
Sampling rate               : 48.0 kHz
Frame rate                  : 31.250 FPS (1536 SPF)
Bit depth                   : 16 bits
Compression mode            : Lossy
Stream size                 : 591 MiB (19%)
Title                       : Latino
Language                    : Spanish
Service kind                : Complete Main
Default                     : Yes
Forced                      : No

Audio #2
ID                          : 3
Format                      : AC-3
Format/Info                 : Audio Coding 3
Format settings, Endianness : Big
Codec ID                    : A_AC3
Duration                    : 2 h 9 min
Bit rate mode               : Constant
Bit rate                    : 640 kb/s
Channel(s)                  : 6 channels
Channel positions           : Front: L C R, Side: L R, LFE
Sampling rate               : 48.0 kHz
Frame rate                  : 31.250 FPS (1536 SPF)
Bit depth                   : 16 bits
Compression mode            : Lossy
Stream size                 : 591 MiB (19%)
Title                       : Ingles
Language                    : English
Service kind                : Complete Main
Default                     : No
Forced                      : No

Text #1
ID                          : 4
Format                      : UTF-8
Codec ID                    : S_TEXT/UTF8
Codec ID/Info               : UTF-8 Plain Text
Duration                    : 2 h 3 min
Bit rate                    : 2 b/s
Count of elements           : 62
Stream size                 : 2.10 KiB (0%)
Title                       : Forzados
Language                    : Spanish
Default                     : Yes
Forced                      : Yes

Text #2
ID                          : 5
Format                      : UTF-8
Codec ID                    : S_TEXT/UTF8
Codec ID/Info               : UTF-8 Plain Text
Duration                    : 2 h 3 min
Bit rate                    : 45 b/s
Count of elements           : 1225
Stream size                 : 40.6 KiB (0%)
Title                       : Completos
Language                    : Spanish
Default                     : No
Forced                      : No

Menu
00:00:00.000                : :Chapter 1
00:04:08.457                : :Chapter 2
00:09:36.367                : :Chapter 3
00:14:30.078                : :Chapter 4
00:19:49.897                : :Chapter 5
00:24:41.063                : :Chapter 6
00:29:45.826                : :Chapter 7
00:35:00.599                : :Chapter 8
00:39:07.595                : :Chapter 9
00:47:28.220                : :Chapter 10
00:57:16.224                : :Chapter 11
01:02:55.272                : :Chapter 12
01:09:26.829                : :Chapter 13
01:14:30.299                : :Chapter 14
01:21:43.774                : :Chapter 15
01:30:10.530                : :Chapter 16
01:38:15.515                : :Chapter 17
01:44:08.743                : :Chapter 18
01:54:07.215                : :Chapter 19
02:03:00.290                : :Chapter 20


BitRate : 3 406 kb/s
Audio Latino : AC3 5.1
Audio Inglés : AC3 5.1

* Chrome esta marcando los .torrent como archivos peligrosos,
Descarguenlos con confianza, son los mismos torrent de siempre.



Calidad Versión Atributo Tamaño link
4K 2160p 10.44 GB glass-2160p-2019-4k-lat.html
BR-RIP 1080p 3.91 GB glass-1080p-2019-br-rip-lat.html
BR-RIP 720p 3.01 GB glass-720p-2019-br-rip-lat.html