6.8/10
126.854
6.3/10
4

Alt-torrent Películas con audio latino para ver y compartir

Continuando desde donde lo dejó "Múltiple", "Glass" sigue los pasos de David Dunn (Bruce Willis) en su búsqueda de la figura superhumana de "La Bestia". En la sombra, Elijah Price (Samuel L. Jackson) parece emerger como una figura clave que conoce los secretos de ambos. Secuela de "El protegido" y "Múltiple", de M. Night Shyamalan.

Título original:
Glass
Año:
2019
Duración:
129 min
País:
USA
Director:
M. Night Shyamalan
Escritor:
M. Night Shyamalan
Reparto:
James McAvoy, Bruce Willis, Samuel L. Jackson, Anya Taylor-Joy
Productora:
Universal Pictures,Blumhouse Productions,Blinding Edge Pictures,Buena Vista International,Perfect World Pictures
Género:
Suspense,Misterio,Drama,Fantasía,Ciencia ficción
Glass (2019) 4K 2160p LAT - FllorTV

Format                      : Matroska
Format version              : Version 4 / Version 2
File size                   : 10.4 GiB
Duration                    : 2 h 9 min
Overall bit rate mode       : Variable
Overall bit rate            : 11.6 Mb/s
Movie name                  : www.alt-torrent.com / - By FllorTV
Encoded date                : UTC 2019-04-12 11:38:28
Writing application         : mkvmerge v31.0.0 ('Dolores In A Shoestand') 64-bit
Writing library             : libebml v1.3.6 + libmatroska v1.4.9

Video
ID                          : 1
Format                      : HEVC
Format/Info                 : High Efficiency Video Coding
Format profile              : Main [email protected]@High
Codec ID                    : V_MPEGH/ISO/HEVC
Duration                    : 2 h 9 min
Bit rate                    : 6 094 kb/s
Width                       : 3 840 pixels
Height                      : 1 604 pixels
Display aspect ratio        : 2.40:1
Frame rate mode             : Constant
Frame rate                  : 23.976 (24000/1001) FPS
Color space                 : YUV
Chroma subsampling          : 4:2:0 (Type 2)
Bit depth                   : 10 bits
Bits/(Pixel*Frame)          : 0.041
Stream size                 : 5.49 GiB (53%)
Title                       : www.alt-torrent.com / - By FllorTV
Writing library             : x265 3.0_Au+14-c7e5878bdd31:[Windows][GCC 6.3.0][64 bit] 10bit
Encoding settings           : cpuid=1111039 / frame-threads=4 / numa-pools=20 / wpp / no-pmode / no-pme / no-psnr / no-ssim / log-level=2 / input-csp=1 / input-res=3840x1604 / interlace=0 / total-frames=185612 / level-idc=51 / high-tier=1 / uhd-bd=0 / ref=4 / no-allow-non-conformance / repeat-headers / annexb / aud / hrd / info / hash=0 / no-temporal-layers / no-open-gop / min-keyint=1 / keyint=24 / gop-lookahead=0 / bframes=4 / b-adapt=2 / b-pyramid / bframe-bias=0 / rc-lookahead=25 / lookahead-slices=4 / scenecut=40 / radl=0 / no-splice / no-intra-refresh / ctu=64 / min-cu-size=8 / rect / no-amp / max-tu-size=32 / tu-inter-depth=1 / tu-intra-depth=1 / limit-tu=0 / rdoq-level=2 / dynamic-rd=0.00 / no-ssim-rd / signhide / no-tskip / nr-intra=0 / nr-inter=0 / no-constrained-intra / no-strong-intra-smoothing / max-merge=3 / limit-refs=3 / limit-modes / me=3 / subme=3 / merange=57 / temporal-mvp / weightp / no-weightb / no-analyze-src-pics / deblock=-3:-3 / no-sao / no-sao-non-deblock / rd=4 / no-early-skip / rskip / no-fast-intra / no-tskip-fast / no-cu-lossless / no-b-intra / no-splitrd-skip / rdpenalty=0 / psy-rd=2.00 / psy-rdoq=1.00 / no-rd-refine / no-lossless / cbqpoffs=0 / crqpoffs=0 / rc=crf / crf=17.0 / qcomp=0.60 / qpstep=4 / stats-write=0 / stats-read=0 / vbv-maxrate=160000 / vbv-bufsize=160000 / vbv-init=0.9 / crf-max=0.0 / crf-min=0.0 / ipratio=1.40 / pbratio=1.30 / aq-mode=2 / aq-strength=1.00 / cutree / zone-count=0 / no-strict-cbr / qg-size=32 / no-rc-grain / qpmax=69 / qpmin=0 / no-const-vbv / sar=1 / overscan=0 / videoformat=5 / range=0 / colorprim=9 / transfer=16 / colormatrix=9 / chromaloc=1 / chromaloc-top=2 / chromaloc-bottom=2 / display-window=0 / master-display=G(13250,34500)B(7500,3000)R(34000,16000)WP(15635,16450)L(10000000,50) / max-cll=457,182 / min-luma=0 / max-luma=1023 / log2-max-poc-lsb=8 / vui-timing-info / vui-hrd-info / slices=1 / no-opt-qp-pps / no-opt-ref-list-length-pps / no-multi-pass-opt-rps / scenecut-bias=0.05 / no-opt-cu-delta-qp / no-aq-motion / hdr / hdr-opt / no-dhdr10-opt / no-idr-recovery-sei / analysis-reuse-level=5 / scale-factor=0 / refine-intra=0 / refine-inter=0 / refine-mv=0 / refine-ctu-distortion=0 / no-limit-sao / ctu-info=0 / no-lowpass-dct / refine-analysis-type=0 / copy-pic=1 / max-ausize-factor=1.0 / no-dynamic-refine / no-single-sei / no-hevc-aq / no-svt / qp-adaptation-range=1.00
Default                     : Yes
Forced                      : No
Color range                 : Limited
Color primaries             : BT.2020
Transfer characteristics    : PQ
Matrix coefficients         : BT.2020 non-constant
Mastering display color pri : R: x=0.680000 y=0.320000, G: x=0.265000 y=0.690000, B: x=0.150000 y=0.060000, White point: x=0.312700 y=0.329000
Mastering display luminance : min: 0.0050 cd/m2, max: 1000.0000 cd/m2
Maximum Content Light Level : 457 cd/m2
Maximum Frame-Average Light : 182 cd/m2

Audio #1
ID                          : 2
Format                      : AC-3
Format/Info                 : Audio Coding 3
Format settings, Endianness : Big
Codec ID                    : A_AC3
Duration                    : 2 h 9 min
Bit rate mode               : Constant
Bit rate                    : 640 kb/s
Channel(s)                  : 6 channels
Channel positions           : Front: L C R, Side: L R, LFE
Sampling rate               : 48.0 kHz
Frame rate                  : 31.250 FPS (1536 SPF)
Bit depth                   : 16 bits
Compression mode            : Lossy
Stream size                 : 591 MiB (6%)
Title                       : Latino
Language                    : Spanish
Service kind                : Complete Main
Default                     : Yes
Forced                      : No

Audio #2
ID                          : 3
Format                      : TrueHD
Format profile              : TrueHD+Atmos / TrueHD
Codec ID                    : A_TRUEHD
Duration                    : 2 h 9 min
Bit rate mode               : Variable
Bit rate                    : 4 109 kb/s
Maximum bit rate            : 7 326 kb/s
Channel(s)                  : Object Based / 8 channels
Channel positions           : Object Based / Front: L C R, Side: L R, Back: L R, LFE
Sampling rate               :  / 48.0 kHz
Frame rate                  : 1 200.000 FPS (40 SPF)
Compression mode            : Lossless
Stream size                 : 3.70 GiB (35%)
Title                       : Ingles - TrueHD Atmos
Language                    : English
Default                     : No
Forced                      : No

Audio #3
ID                          : 4
Format                      : AC-3
Format/Info                 : Audio Coding 3
Format settings, Endianness : Big
Codec ID                    : A_AC3
Duration                    : 2 h 9 min
Bit rate mode               : Constant
Bit rate                    : 640 kb/s
Channel(s)                  : 6 channels
Channel positions           : Front: L C R, Side: L R, LFE
Sampling rate               : 48.0 kHz
Frame rate                  : 31.250 FPS (1536 SPF)
Bit depth                   : 16 bits
Compression mode            : Lossy
Stream size                 : 591 MiB (6%)
Title                       : Ingles
Language                    : English
Service kind                : Complete Main
Default                     : No
Forced                      : No

Text #1
ID                          : 5
Format                      : UTF-8
Codec ID                    : S_TEXT/UTF8
Codec ID/Info               : UTF-8 Plain Text
Duration                    : 2 h 3 min
Bit rate                    : 2 b/s
Count of elements           : 62
Stream size                 : 2.10 KiB (0%)
Title                       : Forzados
Language                    : Spanish
Default                     : Yes
Forced                      : Yes

Text #2
ID                          : 6
Format                      : UTF-8
Codec ID                    : S_TEXT/UTF8
Codec ID/Info               : UTF-8 Plain Text
Duration                    : 2 h 3 min
Bit rate                    : 45 b/s
Count of elements           : 1225
Stream size                 : 40.6 KiB (0%)
Title                       : Completos
Language                    : Spanish
Default                     : No
Forced                      : No

Text #3
ID                          : 7
Format                      : PGS
Muxing mode                 : zlib
Codec ID                    : S_HDMV/PGS
Codec ID/Info               : Picture based subtitle format used on BDs/HD-DVDs
Duration                    : 2 h 8 min
Bit rate                    : 26.9 kb/s
Count of elements           : 2450
Stream size                 : 24.7 MiB (0%)
Title                       : Latino
Language                    : Spanish
Default                     : No
Forced                      : No

Text #4
ID                          : 8
Format                      : PGS
Muxing mode                 : zlib
Codec ID                    : S_HDMV/PGS
Codec ID/Info               : Picture based subtitle format used on BDs/HD-DVDs
Duration                    : 2 h 2 min
Bit rate                    : 36.1 kb/s
Count of elements           : 3130
Stream size                 : 31.6 MiB (0%)
Title                       : Ingles
Language                    : English
Default                     : No
Forced                      : No

Text #5
ID                          : 9
Format                      : PGS
Muxing mode                 : zlib
Codec ID                    : S_HDMV/PGS
Codec ID/Info               : Picture based subtitle format used on BDs/HD-DVDs
Duration                    : 2 h 8 min
Bit rate                    : 26.8 kb/s
Count of elements           : 2457
Stream size                 : 24.6 MiB (0%)
Title                       : Frances
Language                    : French
Default                     : No
Forced                      : No

Menu
00:00:00.000                : :Chapter 1
00:04:08.457                : :Chapter 2
00:09:36.367                : :Chapter 3
00:14:30.078                : :Chapter 4
00:19:49.897                : :Chapter 5
00:24:41.063                : :Chapter 6
00:29:45.826                : :Chapter 7
00:35:00.599                : :Chapter 8
00:39:07.595                : :Chapter 9
00:47:28.220                : :Chapter 10
00:57:16.224                : :Chapter 11
01:02:55.272                : :Chapter 12
01:09:26.829                : :Chapter 13
01:14:30.299                : :Chapter 14
01:21:43.774                : :Chapter 15
01:30:10.530                : :Chapter 16
01:38:15.515                : :Chapter 17
01:44:08.743                : :Chapter 18
01:54:07.215                : :Chapter 19
02:03:00.290                : :Chapter 20


BitRate : Variable
Audio Latino : AC3 5.1
Audio Inglés : AC3 5.1

* Chrome esta marcando los .torrent como archivos peligrosos,
Descarguenlos con confianza, son los mismos torrent de siempre.



Calidad Versión Atributo Tamaño link
BR-RIP 1080p 3.91 GB glass-1080p-2019-br-rip-lat.html
BR-RIP 720p 3.01 GB glass-720p-2019-br-rip-lat.html
FullHD 1080p 3.07 GB glass-1080p-2019-fullhd-lat.html