6.5/10
55.166
6.7/10
3

Alt-torrent Películas con audio latino para ver y compartir

"Godzilla: Rey de los Monstruos" sigue los heroícos esfuerzos de los criptozoólogos de la agencia Monarch mientras tratan de enfrentrarse contra un grupo de enormes monstruos, incluyendo el propio Godzilla. Entre todos intentan resistir a las embestidas de Mothra, Rodan o del último némesis de la humanidad: King Ghidorah. Estas ancianas criaturas harán todo lo posible por sobrevivir, poniendo en riesgo la existencia del ser humano en el planeta.

Título original:
Godzilla: King of the Monsters
Año:
2019
Duración:
132 min
País:
USA, Japan
Director:
Michael Dougherty
Escritor:
Michael Dougherty (screenplay by), Zach Shields (screenplay by), Max Borenstein (story by), Michael Dougherty (story by), Zach Shields (story by)
Reparto:
Kyle Chandler, Vera Farmiga, Millie Bobby Brown, Ken Watanabe
Productora:
Legendary Entertainment,Warner Bros. Pictures,Wanda Qingdao Studios
Género:
Ciencia ficción,Acción
General
Unique ID                                : 188999392446064039580213188432501444059 (0x8E2FF57CFAC552E50FDED5E88E688DDB)
Complete name                            : Godzilla - King of the Monsters (2019) WEBDL 720p LAT - FllorTV.mkv
Format                                   : Matroska
Format version                           : Version 4
File size                                : 3.00 GiB
Duration                                 : 2 h 11 min
Overall bit rate                         : 3 264 kb/s
Movie name                               : www.alt-torrent.com
Encoded date                             : UTC 2019-08-13 12:50:54
Writing application                      : mkvmerge v27.0.0 ('Metropolis') 64-bit
Writing library                          : libebml v1.3.6 + libmatroska v1.4.9

Video
ID                                       : 1
Format                                   : AVC
Format/Info                              : Advanced Video Codec
Format profile                           : [email protected]
Format settings                          : CABAC / 2 Ref Frames
Format settings, CABAC                   : Yes
Format settings, ReFrames                : 2 frames
Codec ID                                 : V_MPEG4/ISO/AVC
Duration                                 : 2 h 11 min
Bit rate                                 : 2 500 kb/s
Width                                    : 1 280 pixels
Height                                   : 534 pixels
Display aspect ratio                     : 2.40:1
Frame rate mode                          : Constant
Frame rate                               : 23.976 (24000/1001) FPS
Color space                              : YUV
Chroma subsampling                       : 4:2:0
Bit depth                                : 8 bits
Scan type                                : Progressive
Bits/(Pixel*Frame)                       : 0.153
Stream size                              : 2.29 GiB (76%)
Title                                    : www.alt-torrent.com
Writing library                          : x264 core 157 r2969
Encoding settings                        : cabac=1 / ref=2 / deblock=1:0:0 / analyse=0x3:0x133 / me=hex / subme=7 / psy=1 / psy_rd=1.00:0.00 / mixed_ref=0 / me_range=16 / chroma_me=1 / trellis=1 / 8x8dct=1 / cqm=0 / deadzone=21,11 / fast_pskip=1 / chroma_qp_offset=-2 / threads=12 / lookahead_threads=2 / sliced_threads=0 / nr=0 / decimate=1 / interlaced=0 / bluray_compat=0 / constrained_intra=0 / bframes=3 / b_pyramid=0 / b_adapt=1 / b_bias=0 / direct=3 / weightb=1 / open_gop=0 / weightp=2 / keyint=239 / keyint_min=23 / scenecut=40 / intra_refresh=0 / rc_lookahead=40 / rc=2pass / mbtree=1 / bitrate=2500 / ratetol=1.0 / qcomp=0.60 / qpmin=10 / qpmax=69 / qpstep=4 / cplxblur=20.0 / qblur=0.5 / vbv_maxrate=5500 / vbv_bufsize=24000 / nal_hrd=none / filler=0 / frame-packing=0 / ip_ratio=1.40 / aq=3:1.00
Language                                 : English
Default                                  : Yes
Forced                                   : No
Color range                              : Limited
Color primaries                          : BT.709
Transfer characteristics                 : BT.709
Matrix coefficients                      : BT.709

Audio #1
ID                                       : 2
Format                                   : AC-3
Format/Info                              : Audio Coding 3
Commercial name                          : Dolby Digital
Codec ID                                 : A_AC3
Duration                                 : 2 h 11 min
Bit rate mode                            : Constant
Bit rate                                 : 384 kb/s
Channel(s)                               : 6 channels
Channel layout                           : L R C LFE Ls Rs
Sampling rate                            : 48.0 kHz
Frame rate                               : 31.250 FPS (1536 SPF)
Bit depth                                : 16 bits
Compression mode                         : Lossy
Delay relative to video                  : -42 ms
Stream size                              : 362 MiB (12%)
Title                                    : www.alt-torrent.com
Language                                 : Spanish
Service kind                             : Complete Main
Default                                  : Yes
Forced                                   : No

Audio #2
ID                                       : 3
Format                                   : AC-3
Format/Info                              : Audio Coding 3
Commercial name                          : Dolby Digital
Codec ID                                 : A_AC3
Duration                                 : 2 h 11 min
Bit rate mode                            : Constant
Bit rate                                 : 384 kb/s
Channel(s)                               : 6 channels
Channel layout                           : L R C LFE Ls Rs
Sampling rate                            : 48.0 kHz
Frame rate                               : 31.250 FPS (1536 SPF)
Bit depth                                : 16 bits
Compression mode                         : Lossy
Delay relative to video                  : -42 ms
Stream size                              : 362 MiB (12%)
Title                                    : www.alt-torrent.com
Language                                 : English
Service kind                             : Complete Main
Default                                  : No
Forced                                   : No

Text #1
ID                                       : 4
Format                                   : UTF-8
Codec ID                                 : S_TEXT/UTF8
Codec ID/Info                            : UTF-8 Plain Text
Duration                                 : 2 h 0 min
Bit rate                                 : 2 b/s
Count of elements                        : 51
Stream size                              : 2.07 KiB (0%)
Title                                    : www.alt-torrent.com
Language                                 : Spanish
Default                                  : Yes
Forced                                   : No

Text #2
ID                                       : 5
Format                                   : UTF-8
Codec ID                                 : S_TEXT/UTF8
Codec ID/Info                            : UTF-8 Plain Text
Duration                                 : 2 h 10 min
Bit rate                                 : 45 b/s
Count of elements                        : 1386
Stream size                              : 43.8 KiB (0%)
Title                                    : www.alt-torrent.com
Language                                 : Spanish
Default                                  : No
Forced                                   : No


BitRate : 3 264 kb/s
Audio Latino : AC3 5.1
Audio Inglés : AC3 5.1

* Chrome esta marcando los .torrent como archivos peligrosos,
Descarguenlos con confianza, son los mismos torrent de siempre.

 AMBOS AUDIOS FINALES
LATINO AC3 5.1 - INGLES AC3 5.1
+ SUBTITULO SRT LATINO


Calidad Versión Atributo Tamaño link
4K 2160p HDR 23.45 GB godzilla-king-of-the-monsters-2160p-4k-2160p-lat.html
BR-RIP 1080p 4.02 GB godzilla-king-of-the-monsters-1080p-br-rip-1080p-lat.html
BR-RIP 1080p H.265 godzilla-king-of-the-monsters-br-rip-1080p-h265-lat.html
BR-RIP 720p 3.13 GB godzilla-king-of-the-monsters-720p-br-rip-720p-lat.html
WEBDL 1080p 4.86 GB godzilla-king-of-the-monsters-1080p-webdl-1080p-lat.html