4.9/10
333
6.1/10
7

Alt-torrent Películas con audio latino para ver y compartir

With no means for defeating Godzilla Earth, mankind watches as King Ghidorah, clad in a golden light, descends on the planet. The heavens and earth shake once again as the war moves to a higher dimension.

Título original:
GODZILLA -星を喰う者-
Año:
2018
Duración:
N/A
País:
Japan
Director:
Hiroyuki Seshita, Kôbun Shizuno
Escritor:
Gen Urobuchi
Reparto:
Mamoru Miyano, Takahiro Sakurai
Productora:
Toho Pictures, Inc.,Polygon Pictures
Género:
Animación,Ciencia ficción
Format                                   : Matroska
Format version                           : Version 4
File size                                : 4.76 GiB
Duration                                 : 1 h 30 min
Overall bit rate mode                    : Variable
Overall bit rate                         : 7 531 kb/s
Movie name                               : www.alt-torrent.com - By FllorTV
Encoded date                             : UTC 2019-01-08 23:41:04
Writing application                      : mkvmerge v27.0.0 ('Metropolis') 64-bit
Writing library                          : libebml v1.3.6 + libmatroska v1.4.9

Video
ID                                       : 1
Format                                   : AVC
Format/Info                              : Advanced Video Codec
Format profile                           : [email protected]
Format settings                          : CABAC / 3 Ref Frames
Format settings, CABAC                   : Yes
Format settings, ReFrames                : 3 frames
Codec ID                                 : V_MPEG4/ISO/AVC
Duration                                 : 1 h 30 min
Bit rate mode                            : Variable
Bit rate                                 : 6 810 kb/s
Maximum bit rate                         : 10.2 Mb/s
Width                                    : 1 920 pixels
Height                                   : 1 080 pixels
Display aspect ratio                     : 16:9
Frame rate mode                          : Constant
Frame rate                               : 24.000 FPS
Color space                              : YUV
Chroma subsampling                       : 4:2:0
Bit depth                                : 8 bits
Scan type                                : Progressive
Bits/(Pixel*Frame)                       : 0.137
Stream size                              : 4.27 GiB (90%)
Title                                    : www.alt-torrent.com
Writing library                          : x264 core 148 r2715 7e75228
Encoding settings                        : cabac=1 / ref=3 / deblock=1:0:0 / analyse=0x1:0x111 / me=umh / subme=10 / psy=1 / psy_rd=1.00:0.00 / mixed_ref=1 / me_range=24 / chroma_me=1 / trellis=2 / 8x8dct=0 / cqm=0 / deadzone=21,11 / fast_pskip=1 / chroma_qp_offset=-2 / threads=8 / lookahead_threads=1 / sliced_threads=0 / nr=0 / decimate=1 / interlaced=0 / bluray_compat=0 / stitchable=1 / constrained_intra=0 / bframes=2 / b_pyramid=0 / b_adapt=2 / b_bias=0 / direct=3 / weightb=1 / open_gop=0 / weightp=2 / keyint=48 / keyint_min=25 / scenecut=0 / intra_refresh=0 / rc_lookahead=48 / rc=2pass / mbtree=1 / bitrate=6810 / ratetol=1.0 / qcomp=0.50 / qpmin=6 / qpmax=51 / qpstep=4 / cplxblur=20.0 / qblur=0.5 / vbv_maxrate=10215 / vbv_bufsize=13620 / nal_hrd=vbr / filler=0 / ip_ratio=1.40 / aq=1:1.00
Default                                  : Yes
Forced                                   : No

Audio #1
ID                                       : 2
Format                                   : AC-3
Format/Info                              : Audio Coding 3
Commercial name                          : Dolby Digital
Codec ID                                 : A_AC3
Duration                                 : 1 h 30 min
Bit rate mode                            : Constant
Bit rate                                 : 384 kb/s
Channel(s)                               : 6 channels
Channel layout                           : L R C LFE Ls Rs
Sampling rate                            : 48.0 kHz
Frame rate                               : 31.250 FPS (1536 SPF)
Bit depth                                : 16 bits
Compression mode                         : Lossy
Stream size                              : 249 MiB (5%)
Title                                    : latino
Language                                 : Spanish
Service kind                             : Complete Main
Default                                  : Yes
Forced                                   : No

Audio #2
ID                                       : 3
Format                                   : AC-3
Format/Info                              : Audio Coding 3
Commercial name                          : Dolby Digital
Codec ID                                 : A_AC3
Duration                                 : 1 h 30 min
Bit rate mode                            : Constant
Bit rate                                 : 384 kb/s
Channel(s)                               : 6 channels
Channel layout                           : L R C LFE Ls Rs
Sampling rate                            : 48.0 kHz
Frame rate                               : 31.250 FPS (1536 SPF)
Bit depth                                : 16 bits
Compression mode                         : Lossy
Stream size                              : 249 MiB (5%)
Title                                    : japones
Language                                 : Japanese
Service kind                             : Complete Main
Default                                  : No
Forced                                   : No

Text #1
ID                                       : 4
Format                                   : UTF-8
Codec ID                                 : S_TEXT/UTF8
Codec ID/Info                            : UTF-8 Plain Text
Duration                                 : 1 h 29 min
Bit rate                                 : 54 b/s
Count of elements                        : 999
Stream size                              : 35.6 KiB (0%)
Title                                    : completo
Language                                 : Spanish
Default                                  : No
Forced                                   : No

Text #2
ID                                       : 5
Format                                   : UTF-8
Codec ID                                 : S_TEXT/UTF8
Codec ID/Info                            : UTF-8 Plain Text
Duration                                 : 5 s 0 ms
Bit rate                                 : 49 b/s
Count of elements                        : 1
Stream size                              : 31.0 Bytes (0%)
Title                                    : forzados
Language                                 : Spanish
Default                                  : Yes
Forced                                   : No

BitRate : Variable
Audio Latino : AC3 5.1
Audio Japones : AC3 5.1



Calidad Versión Tamaño link
Netflix [720p] 2.07 GB gojira-hoshi-wo-k-mono-720p-2018-netflix-lat.html

Puntuación

Basado en 2 valoraciones

7.2

Desglose de puntuación

  • Película
    2.5
  • Audio
    9.5
  • Video
    9.5

Marcow / 11-01-2019, 00:29

+1 -0

7.7 "3era y utlima peli de la trilogia cgi de Toho, Godzilla vs Ghidora"

  • +El CGI es decente y el sonido tambien!!
  • -la peli pudo haber sido 45 min mas corta, el desarrollo fue demasiado disperso, se enfocaron demasiado en los Humanoides y sus conflictos, ademas de un giro inesperado que se sintió super forzado y barato, poca acción de los Kaijus!, un 3er acto que parece ser sacado de Evangelion, y un final de Tono Ecologico que habla muy mal de la humanidad! En conclusion, el final de la triogia no fue buena, la peli fue tediosa!!

agarcia11 / 10-01-2019, 09:08

+2 -0

6.7 "Opinion Personal (muy fastidiosa)"

  • +Esquema visual bueno
  • -Trama muy tedioso y lento