4.1/10
776
7.0/10
11

Alt-torrent Películas con audio latino para ver y compartir

En HEILSTÄTTEN, un santuario remoto y sombrío cerca de Berlín, un grupo de YouTubers accede ilegalmente al siniestro bloque de cirugía para un desafío de 24 horas que esperan se vuelva viral. Aprenden demasiado pronto que no están solos y no son bienvenidos.

Título original:
Heilstätten
Año:
2018
Duración:
89 min
País:
Germany
Director:
Michael David Pate
Escritor:
Michael David Pate, Ecki Ziedrich
Reparto:
Nilam Farooq, Farina Flebbe, Sonja Gerhardt, Maxine Kazis
Productora:
Till Schmerbeck Produktion,20th Century Fox
Género:
Terror
Format                                   : Matroska
Format version                           : Version 4
File size                                : 3.21 GiB
Duration                                 : 1 h 28 min
Overall bit rate                         : 5 167 kb/s
Movie name                               : www.alt-torrent.com
Encoded date                             : UTC 2019-03-05 16:24:48
Writing application                      : mkvmerge v27.0.0 ('Metropolis') 64-bit
Writing library                          : libebml v1.3.6 + libmatroska v1.4.9

Video
ID                                       : 1
Format                                   : AVC
Format/Info                              : Advanced Video Codec
Format profile                           : [email protected]
Format settings                          : CABAC / 5 Ref Frames
Format settings, CABAC                   : Yes
Format settings, ReFrames                : 5 frames
Format settings, GOP                     : N=1
Codec ID                                 : V_MPEG4/ISO/AVC
Duration                                 : 1 h 28 min
Bit rate                                 : 4 525 kb/s
Width                                    : 1 912 pixels
Height                                   : 800 pixels
Display aspect ratio                     : 2.40:1
Frame rate mode                          : Constant
Frame rate                               : 24.000 FPS
Color space                              : YUV
Chroma subsampling                       : 4:2:0
Bit depth                                : 8 bits
Scan type                                : Progressive
Bits/(Pixel*Frame)                       : 0.123
Stream size                              : 2.81 GiB (88%)
Title                                    : www.alt-torrent.com
Language                                 : English
Default                                  : Yes
Forced                                   : No
Color range                              : Limited
Color primaries                          : BT.709
Transfer characteristics                 : BT.709
Matrix coefficients                      : BT.709

Audio #1
ID                                       : 2
Format                                   : AC-3
Format/Info                              : Audio Coding 3
Commercial name                          : Dolby Digital
Codec ID                                 : A_AC3
Duration                                 : 1 h 28 min
Bit rate mode                            : Constant
Bit rate                                 : 256 kb/s
Channel(s)                               : 2 channels
Channel layout                           : L R
Sampling rate                            : 48.0 kHz
Frame rate                               : 31.250 FPS (1536 SPF)
Bit depth                                : 16 bits
Compression mode                         : Lossy
Delay relative to video                  : -42 ms
Stream size                              : 163 MiB (5%)
Title                                    : www.alt-torrent.com
Language                                 : Spanish
Service kind                             : Complete Main
Default                                  : Yes
Forced                                   : No

Audio #2
ID                                       : 3
Format                                   : AC-3
Format/Info                              : Audio Coding 3
Commercial name                          : Dolby Digital
Codec ID                                 : A_AC3
Duration                                 : 1 h 28 min
Bit rate mode                            : Constant
Bit rate                                 : 384 kb/s
Channel(s)                               : 6 channels
Channel layout                           : L R C LFE Ls Rs
Sampling rate                            : 48.0 kHz
Frame rate                               : 31.250 FPS (1536 SPF)
Bit depth                                : 16 bits
Compression mode                         : Lossy
Delay relative to video                  : -42 ms
Stream size                              : 244 MiB (7%)
Title                                    : www.alt-torrent.com
Language                                 : French
Service kind                             : Complete Main
Default                                  : No
Forced                                   : No

BitRate : 5 167 kb/s
Audio Latino : AC3 2.0
Audio Frances : AC3 2.0

* Chrome esta marcando los .torrent como archivos peligrosos,
Descarguenlos con confianza, son los mismos torrent de siempre.

 AMBOS AUDIOS FINALES
SIN SUBTITULOS!!!


Calidad Versión Atributo Tamaño link
WEBDL 720p 1.95 GB heilsttten-720p-2018-webdl-lat.html