5.3/10
32.150
8.4/10
7

Alt-torrent Películas con audio latino para ver y compartir

La Agencia para la Investigación y Defensa Paranormal (AIDP) encomienda a Hellboy la tarea de derrotar a un espíritu ancestral: Nimue, conocida como "La Reina de la Sangre". Nimue fue la amante del mismísimo Merlín durante el reinado del Rey Arturo, de él aprendió los hechizos que la llevaron a ser una de las brujas más poderosas? Pero la locura se apoderó de ella y aprisionó al mago para toda la eternidad. Hace siglos consiguieron acabar con esta villana, enterrándola profundamente, pero ha vuelto de entre los muertos con la intención de destruir a la humanidad con su magia negra. Nueva película basada en el cómic "Hellboy" de Mike Mignola, que tendrá calificación R y se desmarcará de los films de Guillermo del Toro.

Título original:
Hellboy
Año:
2019
Duración:
120 min
País:
USA, UK, Bulgaria
Director:
Neil Marshall
Escritor:
Andrew Cosby (screenplay by), Mike Mignola (based on the Dark Horse Comic Book "Hellboy" created by)
Reparto:
Mark Stanley, Brian Gleeson, Nadya Keranova, Maria Tepavicharova
Productora:
Campbell Grobman Films,Dark Horse Entertainment,Millennium Films,Summit Entertainment,Boyana Film Studios,Encore Films,Lawrence Gordon Productions
Género:
Acción,Aventura,Fantasía,Terror,Ciencia ficción
Format                                   : Matroska
Format version                           : Version 4
File size                                : 3.82 GiB
Duration                                 : 2 h 0 min
Overall bit rate                         : 4 528 kb/s
Movie name                               : www.alt-torrent.com
Encoded date                             : UTC 2019-07-04 20:02:37
Writing application                      : mkvmerge v27.0.0 ('Metropolis') 64-bit
Writing library                          : libebml v1.3.6 + libmatroska v1.4.9

Video
ID                                       : 1
Format                                   : AVC
Format/Info                              : Advanced Video Codec
Format profile                           : [email protected]
Format settings                          : 1 Ref Frames
Format settings, CABAC                   : No
Format settings, ReFrames                : 1 frame
Codec ID                                 : V_MPEG4/ISO/AVC
Duration                                 : 2 h 0 min
Bit rate                                 : 3 886 kb/s
Width                                    : 1 920 pixels
Height                                   : 1 080 pixels
Display aspect ratio                     : 16:9
Frame rate mode                          : Constant
Frame rate                               : 29.970 (30000/1001) FPS
Color space                              : YUV
Chroma subsampling                       : 4:2:0
Bit depth                                : 8 bits
Scan type                                : Progressive
Bits/(Pixel*Frame)                       : 0.063
Stream size                              : 3.28 GiB (86%)
Title                                    : www.alt-torrent.com
Writing library                          : x264 core 155 r2901 7d0ff22
Encoding settings                        : cabac=0 / ref=1 / deblock=1:0:0 / analyse=0x1:0x111 / me=hex / subme=2 / psy=1 / psy_rd=1.00:0.00 / mixed_ref=0 / me_range=16 / chroma_me=1 / trellis=0 / 8x8dct=0 / cqm=0 / deadzone=21,11 / fast_pskip=1 / chroma_qp_offset=0 / threads=6 / lookahead_threads=2 / sliced_threads=0 / nr=0 / decimate=1 / interlaced=0 / bluray_compat=0 / constrained_intra=0 / bframes=0 / weightp=0 / keyint=250 / keyint_min=25 / scenecut=40 / intra_refresh=0 / rc_lookahead=10 / rc=crf / mbtree=1 / crf=20.0 / qcomp=0.60 / qpmin=0 / qpmax=69 / qpstep=4 / ip_ratio=1.40 / aq=1:1.00
Default                                  : Yes
Forced                                   : No

Audio #1
ID                                       : 2
Format                                   : AC-3
Format/Info                              : Audio Coding 3
Commercial name                          : Dolby Digital
Codec ID                                 : A_AC3
Duration                                 : 2 h 0 min
Bit rate mode                            : Constant
Bit rate                                 : 256 kb/s
Channel(s)                               : 2 channels
Channel layout                           : L R
Sampling rate                            : 48.0 kHz
Frame rate                               : 31.250 FPS (1536 SPF)
Bit depth                                : 16 bits
Compression mode                         : Lossy
Stream size                              : 221 MiB (6%)
Title                                    : www.alt-torrent.com
Language                                 : Spanish
Service kind                             : Complete Main
Default                                  : Yes
Forced                                   : No

Audio #2
ID                                       : 3
Format                                   : AC-3
Format/Info                              : Audio Coding 3
Commercial name                          : Dolby Digital
Codec ID                                 : A_AC3
Duration                                 : 2 h 0 min
Bit rate mode                            : Constant
Bit rate                                 : 384 kb/s
Channel(s)                               : 2 channels
Channel layout                           : L R
Sampling rate                            : 48.0 kHz
Frame rate                               : 31.250 FPS (1536 SPF)
Bit depth                                : 16 bits
Compression mode                         : Lossy
Stream size                              : 331 MiB (8%)
Title                                    : www.alt-torrent.com
Language                                 : English
Service kind                             : Complete Main
Default                                  : No
Forced                                   : No

Text
ID                                       : 4
Format                                   : SSA
Codec ID                                 : S_TEXT/SSA
Codec ID/Info                            : Sub Station Alpha
Duration                                 : 2 h 0 min
Bit rate                                 : 129 b/s
Count of elements                        : 1552
Compression mode                         : Lossless
Stream size                              : 114 KiB (0%)
Title                                    : www.alt-torrent.com
Language                                 : Spanish
Default                                  : Yes
Forced                                   : No

BitRate : 4 528 kb/s
Audio Latino : LINE 2.0
Audio Inglés : LINE 2.0
* LINE es audio grabado de cine. Si no te gusta esta calidad,
No reclames, espera a que salga un audio de mejor calidad

* Chrome esta marcando los .torrent como archivos peligrosos,
Descarguenlos con confianza, son los mismos torrent de siempre.

 AUDIO LATINO LINE (SE OYE BIEN)
AUDIO INGLES FINAL 2.0
CONTIENE SUBTITULOS COREANOS PEGADOS
+ SUBTITULO SSA PARA TAPAR SUBS COREANOS


Calidad Versión Atributo Tamaño link
BR-RIP 1080p 3.55 GB hellboy-1080p-br-rip-1080p-lat.html
BR-RIP 720p 2.76 GB hellboy-720p-br-rip-720p-lat.html
HD-RIP 720p 2.65 GB hellboy-720p-2019-hd-rip-lat.html