6.3/10
4.263
6.4/10
1

Alt-torrent Películas con audio latino para ver y compartir

Dean (André Holland) es un agente deportivo que, durante un cierre patronal, ve la oportunidad de hacer negocio con una joven promesa del baloncesto (Melvin Gregg), uno de los clientes a los que representa.

Título original:
High Flying Bird
Año:
2019
Duración:
90 min
País:
USA
Director:
Steven Soderbergh
Escritor:
Tarell Alvin McCraney
Reparto:
Michelle Ang, Farah Bala, Zazie Beetz, Bobbi A Bordley
Productora:
Extension 765,Harper Road Films
Género:
Drama
High Flying Bird (2019) NETFLIX 1080p LAT - FllorTV

Format                      : Matroska
Format version              : Version 4 / Version 2
File size                   : 1.46 GiB
Duration                    : 1 h 30 min
Overall bit rate mode       : Variable
Overall bit rate            : 2 307 kb/s
Movie name                  : www.alt-torrent.com / - By FllorTV
Encoded date                : UTC 2019-02-08 19:44:20 / UTC 2019-01-23 14:03:41
Writing application         : mkvmerge v30.1.0 ('Forever And More') 64-bit
Writing library             : libebml v1.3.6 + libmatroska v1.4.9 / Lavf58.0.0

Video
ID                          : 1
Format                      : AVC
Format/Info                 : Advanced Video Codec
Format profile              : [email protected]
Format settings             : CABAC / 4 Ref Frames
Format settings, CABAC      : Yes
Format settings, RefFrames  : 4 frames
Codec ID                    : V_MPEG4/ISO/AVC
Duration                    : 1 h 30 min
Bit rate mode               : Variable
Bit rate                    : 1 493 kb/s
Maximum bit rate            : 20.0 Mb/s
Width                       : 1 920 pixels
Height                      : 1 080 pixels
Display aspect ratio        : 16:9
Frame rate mode             : Constant
Frame rate                  : 24.000 FPS
Color space                 : YUV
Chroma subsampling          : 4:2:0
Bit depth                   : 8 bits
Scan type                   : Progressive
Bits/(Pixel*Frame)          : 0.030
Stream size                 : 968 MiB (65%)
Title                       : www.alt-torrent.com / - By FllorTV
Writing library             : x264 core 148 r2715 7e75228
Encoding settings           : cabac=1 / ref=4 / deblock=1:0:0 / analyse=0x3:0x111 / me=umh / subme=10 / psy=1 / psy_rd=1.00:0.00 / mixed_ref=1 / me_range=120 / chroma_me=1 / trellis=2 / 8x8dct=1 / cqm=0 / deadzone=21,11 / fast_pskip=1 / chroma_qp_offset=-2 / threads=8 / lookahead_threads=2 / sliced_threads=0 / nr=0 / decimate=1 / interlaced=0 / bluray_compat=0 / stitchable=1 / constrained_intra=0 / bframes=16 / b_pyramid=2 / b_adapt=2 / b_bias=0 / direct=3 / weightb=1 / open_gop=0 / weightp=2 / keyint=240 / keyint_min=121 / scenecut=0 / intra_refresh=0 / rc_lookahead=240 / rc=crf / mbtree=1 / crf=24.0 / qcomp=0.50 / qpmin=6 / qpmax=51 / qpstep=4 / vbv_maxrate=20000 / vbv_bufsize=25000 / crf_max=0.0 / nal_hrd=vbr / filler=0 / ip_ratio=1.40 / aq=1:0.80
Default                     : Yes
Forced                      : No
Statistics Tags Issue       : mkvmerge v30.1.0 ('Forever And More') 64-bit 2019-02-08 19:44:20 / mkvmerge v30.1.0 ('Forever And More') 64-bit 2019-02-08 19:44:20 / UTC 2019-01-23 14:03:41
FromStats_BitRate           : 1536474
FromStats_Duration          : 01:30:40.375000000
FromStats_FrameCount        : 130569
FromStats_StreamSize        : 1044874559

Audio #1
ID                          : 2
Format                      : AC-3
Format/Info                 : Audio Coding 3
Format settings, Endianness : Big
Codec ID                    : A_AC3
Duration                    : 1 h 30 min
Bit rate mode               : Constant
Bit rate                    : 384 kb/s
Channel(s)                  : 6 channels
Channel positions           : Front: L C R, Side: L R, LFE
Sampling rate               : 48.0 kHz
Frame rate                  : 31.250 FPS (1536 SPF)
Bit depth                   : 16 bits
Compression mode            : Lossy
Stream size                 : 249 MiB (17%)
Title                       : Latino
Language                    : Spanish
Service kind                : Complete Main
Default                     : Yes
Forced                      : No
Statistics Tags Issue       : mkvmerge v30.1.0 ('Forever And More') 64-bit 2019-02-08 19:44:20 / mkvmerge v30.1.0 ('Forever And More') 64-bit 2019-02-08 19:44:20 / UTC 2019-01-23 14:03:41
FromStats_BitRate           : 384000
FromStats_Duration          : 01:30:40.544000000
FromStats_FrameCount        : 170017
FromStats_StreamSize        : 261146112

Audio #2
ID                          : 3
Format                      : AC-3
Format/Info                 : Audio Coding 3
Format settings, Endianness : Big
Codec ID                    : A_AC3
Duration                    : 1 h 30 min
Bit rate mode               : Constant
Bit rate                    : 384 kb/s
Channel(s)                  : 6 channels
Channel positions           : Front: L C R, Side: L R, LFE
Sampling rate               : 48.0 kHz
Frame rate                  : 31.250 FPS (1536 SPF)
Bit depth                   : 16 bits
Compression mode            : Lossy
Stream size                 : 249 MiB (17%)
Title                       : Ingles
Language                    : English
Service kind                : Complete Main
Default                     : No
Forced                      : No
Statistics Tags Issue       : mkvmerge v30.1.0 ('Forever And More') 64-bit 2019-02-08 19:44:20 / mkvmerge v30.1.0 ('Forever And More') 64-bit 2019-02-08 19:44:20 / UTC 2019-01-23 14:03:41
FromStats_BitRate           : 384000
FromStats_Duration          : 01:30:40.544000000
FromStats_FrameCount        : 170017
FromStats_StreamSize        : 261146112

Text #1
ID                          : 4
Format                      : UTF-8
Codec ID                    : S_TEXT/UTF8
Codec ID/Info               : UTF-8 Plain Text
Title                       : Forzados
Language                    : Spanish
Default                     : Yes
Forced                      : Yes
Statistics Tags Issue       : mkvmerge v30.1.0 ('Forever And More') 64-bit 2019-02-08 19:44:20 / mkvmerge v30.1.0 ('Forever And More') 64-bit 2019-02-08 19:44:20 / UTC 2019-01-23 14:03:41
FromStats_BitRate           : 7
FromStats_Duration          : 01:27:08.709000000
FromStats_FrameCount        : 118
FromStats_StreamSize        : 5038

Text #2
ID                          : 5
Format                      : UTF-8
Codec ID                    : S_TEXT/UTF8
Codec ID/Info               : UTF-8 Plain Text
Title                       : Completos
Language                    : Spanish
Default                     : No
Forced                      : No
Statistics Tags Issue       : mkvmerge v30.1.0 ('Forever And More') 64-bit 2019-02-08 19:44:20 / mkvmerge v30.1.0 ('Forever And More') 64-bit 2019-02-08 19:44:20 / UTC 2019-01-23 14:03:41
FromStats_BitRate           : 79
FromStats_Duration          : 01:27:52.708000000
FromStats_FrameCount        : 1525
FromStats_StreamSize        : 52532


BitRate : Variable
Audio Latino : AC3 5.1
Audio Inglés : AC3 5.1

* Chrome esta marcando los .torrent como archivos peligrosos,
Descarguenlos con confianza, son los mismos torrent de siempre.