3.7/10
16.114
4.8/10
9

Alt-torrent Películas con audio latino para ver y compartir

Ha habido un asesinato en el Palacio de Buckingham y, dentro de cuatro días, la Reina Victoria será la próxima víctima si nadie puede evitarlo. Por suerte para ella, Sherlock Holmes (Will Ferrell) y John Watson (John C. Reilly) se pondrán manos a la obra para frenar de una vez a James Moriarty e impedir que lleve a cabo su terrible plan. O al menos lo intentarán, porque esta no es una historia convencional de Sherlock Holmes. Esto es Holmes & Watson.

Título original:
Holmes & Watson
Año:
2018
Duración:
90 min
País:
USA
Director:
Etan Cohen
Escritor:
Etan Cohen, Arthur Conan Doyle (Sherlock Holmes and Dr. Watson were created by the late)
Reparto:
Ralph Fiennes, Kelly Macdonald, Will Ferrell, Rebecca Hall
Productora:
Mosaic,Columbia Pictures,Gary Sanchez Productions,Mimran Schur Pictures,Mosaic Media Group
Género:
Misterio,Aventura,Comedia,Crimen
Format                                   : Matroska
Format version                           : Version 4
File size                                : 3.26 GiB
Duration                                 : 1 h 29 min
Overall bit rate                         : 5 192 kb/s
Movie name                               : www.alt-torrent.com
Encoded date                             : UTC 2019-03-27 17:24:59
Writing application                      : mkvmerge v27.0.0 ('Metropolis') 64-bit
Writing library                          : libebml v1.3.6 + libmatroska v1.4.9

Video
ID                                       : 1
Format                                   : AVC
Format/Info                              : Advanced Video Codec
Format profile                           : [email protected]
Format settings                          : CABAC / 5 Ref Frames
Format settings, CABAC                   : Yes
Format settings, ReFrames                : 5 frames
Codec ID                                 : V_MPEG4/ISO/AVC
Duration                                 : 1 h 29 min
Bit rate                                 : 4 550 kb/s
Width                                    : 1 920 pixels
Height                                   : 796 pixels
Display aspect ratio                     : 2.40:1
Frame rate mode                          : Constant
Frame rate                               : 23.976 FPS
Color space                              : YUV
Chroma subsampling                       : 4:2:0
Bit depth                                : 8 bits
Scan type                                : Progressive
Bits/(Pixel*Frame)                       : 0.124
Stream size                              : 2.86 GiB (88%)
Title                                    : www.alt-torrent.com
Language                                 : English
Default                                  : Yes
Forced                                   : No
Color range                              : Limited
Color primaries                          : BT.709
Transfer characteristics                 : BT.709
Matrix coefficients                      : BT.709

Audio #1
ID                                       : 2
Format                                   : AC-3
Format/Info                              : Audio Coding 3
Commercial name                          : Dolby Digital
Codec ID                                 : A_AC3
Duration                                 : 1 h 29 min
Bit rate mode                            : Constant
Bit rate                                 : 256 kb/s
Channel(s)                               : 2 channels
Channel layout                           : L R
Sampling rate                            : 44.1 kHz
Frame rate                               : 28.711 FPS (1536 SPF)
Bit depth                                : 16 bits
Compression mode                         : Lossy
Stream size                              : 165 MiB (5%)
Title                                    : www.alt-torrent.com
Language                                 : Spanish
Service kind                             : Complete Main
Default                                  : Yes
Forced                                   : No

Audio #2
ID                                       : 3
Format                                   : AC-3
Format/Info                              : Audio Coding 3
Commercial name                          : Dolby Digital
Codec ID                                 : A_AC3
Duration                                 : 1 h 29 min
Bit rate mode                            : Constant
Bit rate                                 : 384 kb/s
Channel(s)                               : 6 channels
Channel layout                           : L R C LFE Ls Rs
Sampling rate                            : 48.0 kHz
Frame rate                               : 31.250 FPS (1536 SPF)
Bit depth                                : 16 bits
Compression mode                         : Lossy
Stream size                              : 247 MiB (7%)
Title                                    : www.alt-torrent.com
Language                                 : English
Service kind                             : Complete Main
Default                                  : No
Forced                                   : No

Text
ID                                       : 4
Format                                   : UTF-8
Codec ID                                 : S_TEXT/UTF8
Codec ID/Info                            : UTF-8 Plain Text
Duration                                 : 1 h 24 min
Bit rate                                 : 92 b/s
Count of elements                        : 1740
Stream size                              : 57.6 KiB (0%)
Title                                    : www.alt-torrent.com
Language                                 : Spanish
Default                                  : Yes
Forced                                   : No

BitRate : 5 192 kb/s
Audio Latino : AC3 2.0
Audio Inglés : AC3 2.0

* Chrome esta marcando los .torrent como archivos peligrosos,
Descarguenlos con confianza, son los mismos torrent de siempre.

 AMBOS AUDIOS FINALES
+ SUBTITULOSRT LATINO


Calidad Versión Atributo Tamaño link
FullHD 1080p Placebo 3.04 GB holmes-watson-1080p-2018-fullhd-lat.html
WEBDL 720p 1.97 GB holmes-watson-720p-2018-webdl-lat.html