7.6/10
68.944
8.7/10
18

Alt-torrent Películas para ver y compartir

Mientras Hipo (Jay Baruchel) logra su sueño de lograr una utopía pacífica entre los dragones, la aparición de una pareja sin domar hace que Desdentao, el furia nocturna, se aleje. Cuando el peligro aumente en casa y el reinado de Hipo como líder sea puesto a prueba, ambos deberán tomar decisiones imposibles para salvar a los suyos.

Título original:
How to Train Your Dragon: The Hidden World
Año:
2019
Duración:
104 min
País:
USA
Director:
Dean DeBlois
Escritor:
Dean DeBlois, Cressida Cowell (based upon the "How to Train Your Dragon" book series by)
Reparto:
Jay Baruchel, America Ferrera, F. Murray Abraham, Cate Blanchett
Productora:
DreamWorks Animation,Mad Hatter Entertainment
Género:
Animación,Familia,Aventura
General
Unique ID                                : 83834844074579442590331526733564916886 (0x3F1200EFC5922F9446A3039A1F66B496)
Complete name                            : /home/zeiz/files/How to Train Your Dragon - The Hidden World (2019) FullHD 1080p ENG - ZeiZ/How to Train Your Dragon - The Hidden World (2019) FullHD 1080p ENG - ZeiZ.mkv
Format                                   : Matroska
Format version                           : Version 4
File size                                : 9.46 GiB
Duration                                 : 1 h 44 min
Overall bit rate                         : 13.0 Mb/s
Movie name                               : How to Train Your Dragon - The Hidden World (2019) FullHD 1080p ENG - ZeiZ
Encoded date                             : UTC 2019-04-18 18:40:55
Writing application                      : mkvmerge v26.0.0 ('In The Game') 64-bit
Writing library                          : libebml v1.3.6 + libmatroska v1.4.9
Attachments                              : How to Train Your Dragon - The Hidden World (2019) FullHD 1080p ENG - ZeiZ.jpg

Video
ID                                       : 1
Format                                   : AVC
Format/Info                              : Advanced Video Codec
Format profile                           : [email protected]
Format settings                          : CABAC / 4 Ref Frames
Format settings, CABAC                   : Yes
Format settings, ReFrames                : 4 frames
Codec ID                                 : V_MPEG4/ISO/AVC
Duration                                 : 1 h 44 min
Bit rate                                 : 11.5 Mb/s
Width                                    : 1 920 pixels
Height                                   : 816 pixels
Display aspect ratio                     : 2.35:1
Frame rate mode                          : Constant
Frame rate                               : 23.976 (24000/1001) FPS
Color space                              : YUV
Chroma subsampling                       : 4:2:0
Bit depth                                : 8 bits
Scan type                                : Progressive
Bits/(Pixel*Frame)                       : 0.306
Stream size                              : 8.36 GiB (88%)
Title                                    : eng
Writing library                          : x264 core 148 r2795M aaa9aa8
Encoding settings                        : cabac=1 / ref=4 / deblock=1:1:1 / analyse=0x3:0x113 / me=umh / subme=8 / psy=1 / psy_rd=0.50:0.00 / mixed_ref=1 / me_range=32 / chroma_me=1 / trellis=2 / 8x8dct=1 / cqm=0 / deadzone=21,11 / fast_pskip=1 / chroma_qp_offset=-2 / threads=25 / lookahead_threads=3 / sliced_threads=0 / nr=0 / decimate=1 / interlaced=0 / bluray_compat=0 / constrained_intra=0 / bframes=3 / b_pyramid=2 / b_adapt=1 / b_bias=0 / direct=3 / weightb=1 / open_gop=0 / weightp=2 / keyint=240 / keyint_min=24 / scenecut=40 / intra_refresh=0 / rc_lookahead=50 / rc=2pass / mbtree=1 / bitrate=11500 / ratetol=1.0 / qcomp=0.60 / qpmin=0 / qpmax=69 / qpstep=4 / cplxblur=20.0 / qblur=0.5 / vbv_maxrate=31250 / vbv_bufsize=31250 / nal_hrd=none / filler=0 / ip_ratio=1.40 / aq=3:0.60
Language                                 : English
Default                                  : Yes
Forced                                   : No

Audio
ID                                       : 2
Format                                   : DTS
Format/Info                              : Digital Theater Systems
Codec ID                                 : A_DTS
Duration                                 : 1 h 44 min
Bit rate mode                            : Constant
Bit rate                                 : 1 509 kb/s
Channel(s)                               : 6 channels
Channel layout                           : C L R Ls Rs LFE
Sampling rate                            : 48.0 kHz
Frame rate                               : 93.750 FPS (512 SPF)
Bit depth                                : 24 bits
Compression mode                         : Lossy
Stream size                              : 1.10 GiB (12%)
Title                                    : How.to.Train.Your.Dragon.The.Hidden.World.2019.1080p.BluRay.x264.DTS-FGT
Language                                 : English
Default                                  : No
Forced                                   : No

Text
ID                                       : 5
Format                                   : UTF-8
Codec ID                                 : S_TEXT/UTF8
Codec ID/Info                            : UTF-8 Plain Text
Duration                                 : 1 h 34 min
Bit rate                                 : 51 b/s
Count of elements                        : 1109
Stream size                              : 35.4 KiB (0%)
Title                                    : www.alt-torrent.com
Language                                 : Latin
Default                                  : Yes
Forced                                   : Yes

BitRate : 13.0 Mb/s
Audio Inglés : DTS 5.1

* Chrome esta marcando los .torrent como archivos peligrosos,
Descarguenlos con confianza, son los mismos torrent de siempre.

 EN LATINO TIENE FECHA SALIDA PARA JUNIO


Calidad Versión Atributo Tamaño link
BR-RIP 1080p 3.06 GB how-to-train-your-dragon-the-hidden-world-1080p-2019-br-rip-lat.html
BR-RIP 720p 2.33 GB how-to-train-your-dragon-the-hidden-world-720p-2019-br-rip-lat.html
FullHD 1080p Placebo 4.33 GB how-to-train-your-dragon-the-hidden-world-1080p-2019-fullhd-lat.html