6.6/10
19.125
7.6/10
9

Alt-torrent Películas con audio latino para ver y compartir

Un capitán de submarinos norteamericano se une a un equipo de Navy Seals para intentar rescatar al presidente ruso, secuestrado por un general traidor.

Título original:
Hunter Killer
Año:
2018
Duración:
122 min
País:
UK, China, USA
Director:
Donovan Marsh
Escritor:
Arne Schmidt (screenplay by), Jamie Moss (screenplay by), George Wallace (based on the novel "Firing Point" written by), Don Keith (based on the novel "Firing Point" written by)
Reparto:
Ethan Baird, Jacob Scipio, Dempsey Bovell, Corey Johnson
Productora:
Original Film,G-BASE,Millennium Films,Hunter Killer Productions,Hishow Entertainment,SprocketHeads,Tucker Tooley Entertainment,Relativity Media,Summit Premiere
Género:
Acción,Suspense
Hunter Killer (2018) FullHD 1080p LAT - FllorTV

Format                      : Matroska
Format version              : Version 4 / Version 2
File size                   : 3.64 GiB
Duration                    : 2 h 1 min
Overall bit rate            : 4 283 kb/s
Movie name                  : www.alt-torrent.com / - By FllorTV
Encoded date                : UTC 2019-02-11 09:12:53
Writing application         : mkvmerge v31.0.0 ('Dolores In A Shoestand') 64-bit
Writing library             : libebml v1.3.6 + libmatroska v1.4.9

Video
ID                          : 1
Format                      : AVC
Format/Info                 : Advanced Video Codec
Format profile              : High@L4.1
Format settings             : CABAC / 4 Ref Frames
Format settings, CABAC      : Yes
Format settings, RefFrames  : 4 frames
Codec ID                    : V_MPEG4/ISO/AVC
Duration                    : 2 h 1 min
Bit rate                    : 3 513 kb/s
Width                       : 1 920 pixels
Height                      : 1 080 pixels
Display aspect ratio        : 16:9
Frame rate mode             : Constant
Frame rate                  : 23.976 (24000/1001) FPS
Color space                 : YUV
Chroma subsampling          : 4:2:0
Bit depth                   : 8 bits
Scan type                   : Progressive
Bits/(Pixel*Frame)          : 0.071
Stream size                 : 2.99 GiB (82%)
Title                       : www.alt-torrent.com / By - FllorTV
Writing library             : x264 core 155 r2901 7d0ff22
Encoding settings           : cabac=1 / ref=4 / deblock=1:0:0 / analyse=0x3:0x133 / me=esa / subme=10 / psy=1 / psy_rd=1.00:0.00 / mixed_ref=1 / me_range=24 / chroma_me=1 / trellis=2 / 8x8dct=1 / cqm=0 / deadzone=21,11 / fast_pskip=1 / chroma_qp_offset=-2 / threads=34 / lookahead_threads=5 / sliced_threads=0 / nr=0 / decimate=1 / interlaced=0 / bluray_compat=0 / constrained_intra=0 / bframes=8 / b_pyramid=2 / b_adapt=2 / b_bias=0 / direct=3 / weightb=1 / open_gop=0 / weightp=2 / keyint=240 / keyint_min=24 / scenecut=40 / intra_refresh=0 / rc_lookahead=60 / rc=crf / mbtree=1 / crf=20.0 / qcomp=0.60 / qpmin=0 / qpmax=69 / qpstep=4 / vbv_maxrate=62500 / vbv_bufsize=78125 / crf_max=0.0 / nal_hrd=none / filler=0 / ip_ratio=1.40 / aq=1:1.00
Default                     : Yes
Forced                      : No
Color range                 : Limited
Color primaries             : BT.709
Transfer characteristics    : BT.709
Matrix coefficients         : BT.709

Audio #1
ID                          : 2
Format                      : AC-3
Format/Info                 : Audio Coding 3
Format settings, Endianness : Big
Codec ID                    : A_AC3
Duration                    : 2 h 1 min
Bit rate mode               : Constant
Bit rate                    : 384 kb/s
Channel(s)                  : 6 channels
Channel positions           : Front: L C R, Side: L R, LFE
Sampling rate               : 48.0 kHz
Frame rate                  : 31.250 FPS (1536 SPF)
Bit depth                   : 16 bits
Compression mode            : Lossy
Delay relative to video     : 55 ms
Stream size                 : 334 MiB (9%)
Title                       : Latino
Language                    : Spanish
Service kind                : Complete Main
Default                     : Yes
Forced                      : No

Audio #2
ID                          : 3
Format                      : AC-3
Format/Info                 : Audio Coding 3
Format settings, Endianness : Big
Codec ID                    : A_AC3
Duration                    : 2 h 1 min
Bit rate mode               : Constant
Bit rate                    : 384 kb/s
Channel(s)                  : 6 channels
Channel positions           : Front: L C R, Side: L R, LFE
Sampling rate               : 48.0 kHz
Frame rate                  : 31.250 FPS (1536 SPF)
Bit depth                   : 16 bits
Compression mode            : Lossy
Delay relative to video     : 64 ms
Stream size                 : 334 MiB (9%)
Title                       : Ingles
Language                    : English
Service kind                : Complete Main
Default                     : No
Forced                      : No

Text #1
ID                          : 4
Format                      : UTF-8
Codec ID                    : S_TEXT/UTF8
Codec ID/Info               : UTF-8 Plain Text
Duration                    : 5 s 0 ms
Bit rate                    : 49 b/s
Count of elements           : 1
Stream size                 : 31.0 Bytes (0%)
Title                       : Forzados
Language                    : Spanish
Default                     : Yes
Forced                      : Yes

Text #2
ID                          : 5
Format                      : UTF-8
Codec ID                    : S_TEXT/UTF8
Codec ID/Info               : UTF-8 Plain Text
Duration                    : 1 h 51 min
Bit rate                    : 47 b/s
Count of elements           : 1038
Stream size                 : 38.9 KiB (0%)
Title                       : Completos
Language                    : Spanish
Default                     : No
Forced                      : No

Menu
00:00:00.000                : :Chapter 1
00:06:19.629                : :Chapter 2
00:14:56.396                : :Chapter 3
00:20:00.491                : :Chapter 4
00:28:19.364                : :Chapter 5
00:38:31.226                : :Chapter 6
00:46:29.120                : :Chapter 7
00:54:15.794                : :Chapter 8
01:00:26.123                : :Chapter 9
01:09:40.009                : :Chapter 10
01:15:48.961                : :Chapter 11
01:23:29.129                : :Chapter 12
01:30:17.704                : :Chapter 13
01:39:23.291                : :Chapter 14
01:44:53.996                : :Chapter 15
01:51:35.731                : :Chapter 16


BitRate : 4 283 kb/s
Audio Latino : AC3 5.1
Audio Inglés : AC3 5.1



Calidad Versión Atributo Tamaño link
WEBDL 1080p 4.9 GB hunter-killer-2018-webdl-lat.html
WEBDL 1080p 4.58 GB hunter-killer-1080p-2018-webdl-lat.html

Para habilitar los comentarios debes estar de acuerdo con las siguientes reglas:

  • Usar lenguaje apropiado evitando las faltas de respeto.
  • No incluir links a otras páginas de descarga
  • Evitar preguntas como "Cuando suben la película" o "Cuando sale en Latino",apenas estén disponibles las subiremos.
  • Los comentarios están habilitados, solo para pedir ayuda, informar algún problema con la película o comentar sobre la misma. Cualquier otro tipo de comentario puede ser borrado
  • No hacer reclamos o comentarios respecto a la publicidad, el acceso es gratis y esa es nuestra única forma de financiar los costos de la página. Y como dice el dicho: "a caballo regalado no se le miran los dientes".
  • Si necesitas ayuda, hacerlo en www.alt-torrent.com/ayuda.html
No cumplir con esto puede ser motivo de eliminación del comentario, bloqueo de los comentarios o bloqueo en ALT, dependiendo de la falta a estas reglas.