6.6/10
19.125
8.1/10
13

Alt-torrent Películas con audio latino para ver y compartir

Un capitán de submarinos norteamericano hace equipo junto a los Navy Seals para intentar rescatar al presidente ruso, secuestrado por un general traidor.

Título original:
Hunter Killer
Año:
2018
Duración:
122 min
País:
UK, China, USA
Director:
Donovan Marsh
Escritor:
Arne Schmidt (screenplay by), Jamie Moss (screenplay by), George Wallace (based on the novel "Firing Point" written by), Don Keith (based on the novel "Firing Point" written by)
Reparto:
Ethan Baird, Jacob Scipio, Dempsey Bovell, Corey Johnson
Productora:
Original Film,G-BASE,Millennium Films,Hunter Killer Productions,Hishow Entertainment,SprocketHeads,Tucker Tooley Entertainment
Género:
Acción,Suspense
Format                                   : Matroska
Format version                           : Version 4
File size                                : 4.57 GiB
Duration                                 : 2 h 1 min
Overall bit rate                         : 5 381 kb/s
Movie name                               : www.alt-torrent.com - By FllorTV
Encoded date                             : UTC 2019-01-17 16:16:27
Writing application                      : mkvmerge v27.0.0 ('Metropolis') 64-bit
Writing library                          : libebml v1.3.6 + libmatroska v1.4.9

Video
ID                                       : 2
Format                                   : AVC
Format/Info                              : Advanced Video Codec
Format profile                           : High@L4
Format settings                          : CABAC / 5 Ref Frames
Format settings, CABAC                   : Yes
Format settings, ReFrames                : 5 frames
Codec ID                                 : V_MPEG4/ISO/AVC
Duration                                 : 2 h 1 min
Bit rate                                 : 4 547 kb/s
Width                                    : 1 920 pixels
Height                                   : 806 pixels
Display aspect ratio                     : 2.40:1
Frame rate mode                          : Constant
Frame rate                               : 23.976 FPS
Color space                              : YUV
Chroma subsampling                       : 4:2:0
Bit depth                                : 8 bits
Scan type                                : Progressive
Bits/(Pixel*Frame)                       : 0.123
Stream size                              : 3.86 GiB (84%)
Title                                    : www.alt-torrent.com
Language                                 : English
Default                                  : Yes
Forced                                   : No
Color range                              : Limited
Color primaries                          : BT.709
Transfer characteristics                 : BT.709
Matrix coefficients                      : BT.709

Audio #1
ID                                       : 1
Format                                   : AC-3
Format/Info                              : Audio Coding 3
Commercial name                          : Dolby Digital
Codec ID                                 : A_AC3
Duration                                 : 2 h 1 min
Bit rate mode                            : Constant
Bit rate                                 : 384 kb/s
Channel(s)                               : 6 channels
Channel layout                           : L R C LFE Ls Rs
Sampling rate                            : 48.0 kHz
Frame rate                               : 31.250 FPS (1536 SPF)
Bit depth                                : 16 bits
Compression mode                         : Lossy
Stream size                              : 334 MiB (7%)
Title                                    : ingles
Language                                 : English
Service kind                             : Complete Main
Default                                  : Yes
Forced                                   : No

Audio #2
ID                                       : 3
Format                                   : AC-3
Format/Info                              : Audio Coding 3
Commercial name                          : Dolby Digital
Codec ID                                 : A_AC3
Duration                                 : 2 h 1 min
Bit rate mode                            : Constant
Bit rate                                 : 448 kb/s
Channel(s)                               : 6 channels
Channel layout                           : L R C LFE Ls Rs
Sampling rate                            : 48.0 kHz
Frame rate                               : 31.250 FPS (1536 SPF)
Bit depth                                : 16 bits
Compression mode                         : Lossy
Stream size                              : 390 MiB (8%)
Title                                    : latino
Language                                 : Spanish
Service kind                             : Complete Main
Default                                  : No
Forced                                   : No

Text
ID                                       : 4
Format                                   : UTF-8
Codec ID                                 : S_TEXT/UTF8
Codec ID/Info                            : UTF-8 Plain Text
Duration                                 : 1 h 54 min
Bit rate                                 : 54 b/s
Count of elements                        : 1303
Stream size                              : 45.9 KiB (0%)
Title                                    : latino
Language                                 : Spanish
Default                                  : Yes
Forced                                   : No

BitRate : 5 381 kb/s
Audio Latino : AC3 5.1
Audio Inglés : AC3 5.1



Calidad Versión Atributo Tamaño link
FullHD 1080p 3.64 GB hunter-killer-1080p-2018-fullhd-lat.html
WEBDL 1080p 4.9 GB hunter-killer-2018-webdl-lat.html

Para habilitar los comentarios debes estar de acuerdo con las siguientes reglas:

  • Usar lenguaje apropiado evitando las faltas de respeto.
  • No incluir links a otras páginas de descarga
  • Evitar preguntas como "Cuando suben la película" o "Cuando sale en Latino",apenas estén disponibles las subiremos.
  • Los comentarios están habilitados, solo para pedir ayuda, informar algún problema con la película o comentar sobre la misma. Cualquier otro tipo de comentario puede ser borrado
  • No hacer reclamos o comentarios respecto a la publicidad, el acceso es gratis y esa es nuestra única forma de financiar los costos de la página. Y como dice el dicho: "a caballo regalado no se le miran los dientes".
  • Si necesitas ayuda, hacerlo en www.alt-torrent.com/ayuda.html
No cumplir con esto puede ser motivo de eliminación del comentario, bloqueo de los comentarios o bloqueo en ALT, dependiendo de la falta a estas reglas.