6.2/10
23.908
8.3/10
10

Alt-torrent Películas con audio latino para ver y compartir

Barbara Thorson es una chica poco sociable e inadaptada cuya vida no es nada fácil, por lo que comienza a imaginarse un mundo fantástico donde existen criaturas gigantes de las que se tiene que encargar. Su única misión: detenerlas.

Título original:
I Kill Giants
Año:
2017
Duración:
106 min
País:
Belgium, UK, USA, China
Director:
Anders Walter
Escritor:
Joe Kelly (screenplay by), Joe Kelly (based on the Man of Action graphic novel "I Kill Giants" created by), J.M. Ken Niimura (based on the Man of Action graphic novel "I Kill Giants" created by)
Reparto:
Madison Wolfe, Zoe Saldana, Imogen Poots, Sydney Wade
Productora:
XYZ Films,1492 Pictures,Having Me Films,Ocean Blue Entertainment,uFund,Man of Action,Adonis Production,Parallel Films,Umedia
Género:
Drama,Fantasía
I Kill Giants (2017) FullHD 1080p LAT - FllorTV

Format                      : Matroska
Format version              : Version 4 / Version 2
File size                   : 2.66 GiB
Duration                    : 1 h 46 min
Overall bit rate            : 3 575 kb/s
Movie name                  : www.alt-torrent.com / - By FllorTV
Encoded date                : UTC 2019-02-09 21:49:15
Writing application         : mkvmerge v31.0.0 ('Dolores In A Shoestand') 64-bit
Writing library             : libebml v1.3.6 + libmatroska v1.4.9

Video
ID                          : 1
Format                      : AVC
Format/Info                 : Advanced Video Codec
Format profile              : [email protected]
Format settings             : CABAC / 4 Ref Frames
Format settings, CABAC      : Yes
Format settings, RefFrames  : 4 frames
Codec ID                    : V_MPEG4/ISO/AVC
Duration                    : 1 h 46 min
Bit rate                    : 2 805 kb/s
Width                       : 1 920 pixels
Height                      : 1 080 pixels
Display aspect ratio        : 16:9
Frame rate mode             : Constant
Frame rate                  : 23.976 (24000/1001) FPS
Color space                 : YUV
Chroma subsampling          : 4:2:0
Bit depth                   : 8 bits
Scan type                   : Progressive
Bits/(Pixel*Frame)          : 0.056
Stream size                 : 2.08 GiB (78%)
Title                       : www.alt-torrent.com / - By FllorTV
Writing library             : x264 core 148 r2708 86b7198
Encoding settings           : cabac=1 / ref=4 / deblock=1:0:0 / analyse=0x3:0x133 / me=esa / subme=9 / psy=1 / psy_rd=1.00:0.00 / mixed_ref=1 / me_range=16 / chroma_me=1 / trellis=2 / 8x8dct=1 / cqm=0 / deadzone=21,11 / fast_pskip=1 / chroma_qp_offset=-2 / threads=34 / lookahead_threads=2 / sliced_threads=0 / nr=0 / decimate=1 / interlaced=0 / bluray_compat=0 / constrained_intra=0 / bframes=3 / b_pyramid=2 / b_adapt=2 / b_bias=0 / direct=3 / weightb=1 / open_gop=0 / weightp=2 / keyint=240 / keyint_min=24 / scenecut=40 / intra_refresh=0 / rc_lookahead=60 / rc=crf / mbtree=1 / crf=20.0 / qcomp=0.60 / qpmin=0 / qpmax=69 / qpstep=4 / vbv_maxrate=62500 / vbv_bufsize=78125 / crf_max=0.0 / nal_hrd=none / filler=0 / ip_ratio=1.40 / aq=1:1.00
Default                     : Yes
Forced                      : No
Color range                 : Limited
Color primaries             : BT.709
Transfer characteristics    : BT.709
Matrix coefficients         : BT.709

Audio #1
ID                          : 2
Format                      : AC-3
Format/Info                 : Audio Coding 3
Format settings, Endianness : Big
Codec ID                    : A_AC3
Duration                    : 1 h 46 min
Bit rate mode               : Constant
Bit rate                    : 384 kb/s
Channel(s)                  : 2 channels
Channel positions           : Front: L R
Sampling rate               : 48.0 kHz
Frame rate                  : 31.250 FPS (1536 SPF)
Bit depth                   : 16 bits
Compression mode            : Lossy
Stream size                 : 292 MiB (11%)
Title                       : Latino
Language                    : Spanish
Service kind                : Complete Main
Default                     : Yes
Forced                      : No

Audio #2
ID                          : 3
Format                      : AC-3
Format/Info                 : Audio Coding 3
Format settings, Endianness : Big
Codec ID                    : A_AC3
Duration                    : 1 h 46 min
Bit rate mode               : Constant
Bit rate                    : 384 kb/s
Channel(s)                  : 6 channels
Channel positions           : Front: L C R, Side: L R, LFE
Sampling rate               : 48.0 kHz
Frame rate                  : 31.250 FPS (1536 SPF)
Bit depth                   : 16 bits
Compression mode            : Lossy
Stream size                 : 292 MiB (11%)
Title                       : Ingles
Language                    : English
Service kind                : Complete Main
Default                     : No
Forced                      : No

Text #1
ID                          : 4
Format                      : UTF-8
Codec ID                    : S_TEXT/UTF8
Codec ID/Info               : UTF-8 Plain Text
Duration                    : 50 min 23 s
Bit rate                    : 0 b/s
Count of elements           : 4
Stream size                 : 73.0 Bytes (0%)
Title                       : Forzados
Language                    : Spanish
Default                     : Yes
Forced                      : Yes

Text #2
ID                          : 5
Format                      : UTF-8
Codec ID                    : S_TEXT/UTF8
Codec ID/Info               : UTF-8 Plain Text
Duration                    : 1 h 36 min
Bit rate                    : 36 b/s
Count of elements           : 903
Stream size                 : 25.9 KiB (0%)
Title                       : Ingles
Language                    : Spanish
Default                     : No
Forced                      : No

Menu
00:00:00.000                : :Chapter 1
00:08:40.353                : :Chapter 2
00:16:09.802                : :Chapter 3
00:20:35.609                : :Chapter 4
00:32:25.318                : :Chapter 5
00:51:53.819                : :Chapter 6
01:04:16.144                : :Chapter 7
01:16:04.977                : :Chapter 8
01:23:37.012                : :Chapter 9
01:37:49.906                : :Chapter 10


BitRate : 3 575 kb/s
Audio Latino : AC3 5.1
Audio Inglés : AC3 5.1

* Chrome esta marcando los .torrent como archivos peligrosos,
Descarguenlos con confianza, son los mismos torrent de siempre.